注册 登录  
 加关注
   显示下一条  |  关闭
温馨提示!由于新浪微博认证机制调整,您的新浪微博帐号绑定已过期,请重新绑定!立即重新绑定新浪微博》  |  关闭

逆风飞翔的鸟

追逐风中散落的默契~

 
 
 

日志

 
 
关于我

曾经迷惑于一份距离 曾经感动于一个传说 …… 在仆仆风中 我伸手 抓住你我的缘分 …… “傻傻”的你 能闻到风中 你我的默契吗?!

网易考拉推荐

【幻想】Ferocious.Planet.2011.噩梦星球  

2013-02-22 23:08:26|  分类: 幻想 |  标签: |举报 |字号 订阅

  下载LOFTER 我的照片书  |
【幻想】Ferocious.Planet.2011.噩梦星球 - 归鸿 - 逆风飞翔的鸟
◎译  名 噩梦星球
◎片  名 Ferocious Planet
◎年  代 2011
◎国  家 美国
◎类  别 冒险/科幻/惊悚
◎IMDB链接  http://www.imdb.com/title/tt1637728/
◎语  言 英语
◎片  长 84 mins 44 seconds
◎导  演 Billy O'Brien
◎主  演 Joe Flanigan  ...  Colonel Sam Synn  
      John Rhys-Davies  ...  Senator Jackson Crenshaw  
      Catherine Walker  ...  Dr. Karen Fast  
      Dagmar D?ring  ...  Dr. Jillian O'Hara  
      Robert Soohan  ...  Brian Murphy  
      Yare Michael Jegbefume  ...  Lieutenant Rivers
      Chris Newman  ...  Pvt. Jordan Reid
      Shashi Rami  ...  Al Icia  


◎简  介

  美国国家科学研究所,一名重要的参议院和他的随从被邀请来此参观。他们参观的对象,是数名科学家潜心研究了多年的平行维度机器。该机器可以即时投影地球其他维度的兄弟星球,科学家们希望借此得到国家更多的资金支持。谁知实验过程中发生事故,平行维度机器发生爆炸,在场人员全部失去知觉。当他们相继醒来时,却发现一个凶恶丑陋的怪物在房间内穿梭。参议院大为光火,决定就此离开,难以置信的是实验室竟然跑到了一片原始丛林之中。显而易见,巨大的爆炸将他们带到了平行维度的世界。

  由于机器损坏,他们暂时无法返回自己的世界,与此同时还要面对来自未知世界的各种威胁……



  General #1
    ID : 1 (0x1)
    Complete name : 00000.m2ts
    Format : BDAV
    Format/Info : Blu-ray Video
    File size : 16.9 GiB
    Duration : 1h 24mn
    Overall bit rate mode : Variable
    Overall bit rate : 28.5 Mbps
    Maximum Overall bit rate : 35.5 Mbps
  Video #4113
    ID : 4113 (0x1011)
    Menu ID : 1 (0x1)
    Format : AVC
    Format/Info : Advanced Video Codec
    Format profile : High@L4.1
    Format settings, CABAC : Yes
    Format settings, ReFrames : 4 frames
    Format settings, GOP : M=4, N=12
    Codec ID : 27
    Duration : 1h 24mn
    Bit rate mode : Variable
    Bit rate : 25.3 Mbps
    Maximum bit rate : 32.0 Mbps
    Width : 1 920 pixels
    Height : 1 080 pixels
    Display aspect ratio : 16:9
    Frame rate : 25.000 fps
    Standard : PAL
    Color space : YUV
    Chroma subsampling : 4:2:0
    Bit depth : 8 bits
    Scan type : Interlaced
    Scan order : Top Field First
    Bits/(Pixel*Frame) : 0.489
    Stream size : 15.0 GiB (89%)
    Color primaries : BT.709
    Transfer characteristics : BT.709
    Matrix coefficients : BT.709
  Audio #4352
    ID : 4352 (0x1100)
    Menu ID : 1 (0x1)
    Format : DTS
    Format/Info : Digital Theater Systems
    Format profile : HRA / Core
    Mode : 16
    Format settings, Endianness : Big
    Muxing mode : Stream extension
    Codec ID : 133
    Duration : 1h 24mn
    Bit rate mode : Constant
    Bit rate : 2 046 Kbps / 1 509 Kbps
    Channel(s) : 6 channels
    Channel positions : Front: L C R, Side: L R, LFE
    Sampling rate : 48.0 KHz
    Bit depth : 16 bits
    Compression mode : Lossy
    Stream size : 1.21 GiB (7%)
    Language : English
  Text #4608
    ID : 4608 (0x1200)
    Menu ID : 1 (0x1)
    Format : PGS
    Codec ID : 144
    Duration : 1h 24mn
    Delay relative to video : 5s 160ms
    Language : Chinese
  Text #4609
    ID : 4609 (0x1201)
    Menu ID : 1 (0x1)
    Format : PGS
    Codec ID : 144
    Duration : 1h 24mn
    Delay relative to video : 5s 160ms
    Language : Chinese
  评论这张
 
阅读(133)| 评论(0)
推荐 转载

历史上的今天

评论

<#--最新日志,群博日志--> <#--推荐日志--> <#--引用记录--> <#--博主推荐--> <#--随机阅读--> <#--首页推荐--> <#--历史上的今天--> <#--被推荐日志--> <#--上一篇,下一篇--> <#-- 热度 --> <#-- 网易新闻广告 --> <#--右边模块结构--> <#--评论模块结构--> <#--引用模块结构--> <#--博主发起的投票-->
 
 
 
 
 
 
 
 
 
 
 
 
 
 

页脚

网易公司版权所有 ©1997-2017