注册 登录  
 加关注
   显示下一条  |  关闭
温馨提示!由于新浪微博认证机制调整,您的新浪微博帐号绑定已过期,请重新绑定!立即重新绑定新浪微博》  |  关闭

逆风飞翔的鸟

追逐风中散落的默契~

 
 
 

日志

 
 
关于我

曾经迷惑于一份距离 曾经感动于一个传说 …… 在仆仆风中 我伸手 抓住你我的缘分 …… “傻傻”的你 能闻到风中 你我的默契吗?!

网易考拉推荐

【动作】No.One.Lives.2013.无人生还  

2013-12-05 16:57:50|  分类: 动作 |  标签: |举报 |字号 订阅

  下载LOFTER 我的照片书  |
【动作】No.One.Lives.2013.无人生还 - 歸鴻 - 逆风飞翔的鸟
◎译  名 无人生还
◎片  名 No One Lives
◎年  代 2012
◎国  家 美国
◎类  别 恐怖/惊悚
◎语  言 英语
◎IMDB链接  http://www.imdb.com/title/tt1763264/
◎上映日期 2013-05-10(美国)/2013-04-27(日本)
◎片  长 87 分钟
◎导  演 北村龙平 Ryuhei Kitamura
◎主  演 卢克·伊万斯 Luke Evans ....Driver
      阿德莱德·克莱蒙丝 Adelaide Clemens ....Emma
      德里克·迈戈雅 Derek Magyar ....Flynn
      Beau Knapp ....Denny
      阿美莉嘉·奥利沃 America Olivo ....Tamara
      李·特格森 Lee Tergesen ....Hoag
      琳德塞·肖 Lindsey Shaw ....Amber
      George Murdoch ....Ethan
      劳拉·莱姆希 Laura Ramsey ....Betty
      盖里·格拉伯斯 Gary Grubbs ....Harris
      安德里亚·弗兰克 Andrea Frankle ....Mother
      Robert Martin Steinberg ....Father
      Jake Austin Walker ....Jack
      Dalton Gray ....Younger Boy
      Lenore Banks ....Helen
      Michael 'Mick' Harrity ....Host
      Carl Palmer ....Sheriff
      艾琳娜·瓦雷拉 Elena Varela ....Newscaster


◎简  介

  一帮凶狠的公路歹徒绑架了一对越野旅行的富裕夫妇,但很快震惊地发现事情并没有他们想象的那么简单。当被俘女子惨遭杀害之后,受害者和施暴者的处境陡然发生逆转,男子竟然变成了一个愤怒无情的杀手,从容不迫杀掉了这个团伙的每个成员,这起绑架演变成了一场大屠杀···

  本片悬疑迭出,刑器不断,各种突如其来的死亡方式吊足观众胃口,而预告片结尾遥望着一切杀戮的血肉模糊身影,更是把如坐针毡的血腥场面和高度的悬疑相结合,绝对符合CULT迷的观赏需要。



  General #1
    ID : 1 (0x1)
    Complete name : 00000.m2ts
    Format : BDAV
    Format/Info : Blu-ray Video
    File size : 17.5 GiB
    Duration : 1h 26mn
    Overall bit rate mode : Variable
    Overall bit rate : 29.1 Mbps
    Maximum Overall bit rate : 35.5 Mbps
  Video #4113
    ID : 4113 (0x1011)
    Menu ID : 1 (0x1)
    Format : AVC
    Format/Info : Advanced Video Codec
    Format profile : High@L4.1
    Format settings, CABAC : Yes
    Format settings, ReFrames : 2 frames
    Codec ID : 27
    Duration : 1h 26mn
    Bit rate mode : Variable
    Bit rate : 27.3 Mbps
    Width : 1 920 pixels
    Height : 1 080 pixels
    Display aspect ratio : 16:9
    Frame rate : 23.976 fps
    Color space : YUV
    Chroma subsampling : 4:2:0
    Bit depth : 8 bits
    Scan type : Progressive
    Bits/(Pixel*Frame) : 0.549
    Stream size : 16.5 GiB (94%)
  Audio #4352
    ID : 4352 (0x1100)
    Menu ID : 1 (0x1)
    Format : TrueHD / AC-3
    Mode extension : CM (complete main)
    Format settings, Endianness : Big
    Muxing mode : Stream extension
    Codec ID : 131
    Duration : 1h 26mn
    Bit rate mode : Variable / Constant
    Bit rate : 640 Kbps
    Maximum bit rate : 5 724 Kbps
    Channel(s) : 6 channels
    Channel positions : Front: L C R, Side: L R, LFE
    Sampling rate : 48.0 KHz
    Bit depth : 16 bits
    Stream size : 395 MiB (2%)
    Language : English
  Text #4608
    ID : 4608 (0x1200)
    Menu ID : 1 (0x1)
    Format : PGS
    Codec ID : 144
    Language : Chinese
  Text #4609
    ID : 4609 (0x1201)
    Menu ID : 1 (0x1)
    Format : PGS
    Codec ID : 144
    Language : Chinese
  Text #4610
    ID : 4610 (0x1202)
    Menu ID : 1 (0x1)
    Format : PGS
    Codec ID : 144
    Language : English
  Text #4611
    ID : 4611 (0x1203)
    Menu ID : 1 (0x1)
    Format : PGS
    Codec ID : 144
    Language : Spanish
  评论这张
 
阅读(92)| 评论(0)
推荐 转载

历史上的今天

在LOFTER的更多文章

评论

<#--最新日志,群博日志--> <#--推荐日志--> <#--引用记录--> <#--博主推荐--> <#--随机阅读--> <#--首页推荐--> <#--历史上的今天--> <#--被推荐日志--> <#--上一篇,下一篇--> <#-- 热度 --> <#-- 网易新闻广告 --> <#--右边模块结构--> <#--评论模块结构--> <#--引用模块结构--> <#--博主发起的投票-->
 
 
 
 
 
 
 
 
 
 
 
 
 
 

页脚

网易公司版权所有 ©1997-2017