注册 登录  
 加关注
   显示下一条  |  关闭
温馨提示!由于新浪微博认证机制调整,您的新浪微博帐号绑定已过期,请重新绑定!立即重新绑定新浪微博》  |  关闭

逆风飞翔的鸟

追逐风中散落的默契~

 
 
 

日志

 
 
关于我

曾经迷惑于一份距离 曾经感动于一个传说 …… 在仆仆风中 我伸手 抓住你我的缘分 …… “傻傻”的你 能闻到风中 你我的默契吗?!

网易考拉推荐

【剧情】The.Paperboy.2012.报童  

2013-02-13 10:56:53|  分类: 剧情 |  标签: |举报 |字号 订阅

  下载LOFTER 我的照片书  |
【剧情】The.Paperboy.2012.报童 - 归鸿 - 逆风飞翔的鸟
◎译   名 送报男孩/报童/记者返乡/赤裸关系(台)/诱情报局(港)
◎片   名 The Paperboy
◎年   代 2012
◎国   家 美国
◎类   别 惊悚
◎IMDB 链接 http://www.imdb.com/title/tt1496422/
◎语   言 英语
◎字   幕 中文
◎导   演 李·丹尼尔斯 Lee Daniels
◎主   演 扎克·埃夫隆 Zac Efron  ....Jack James
       妮可·基德曼 Nicole Kidman  ....Charlotte Bless
       马修·麦康纳 Matthew McConaughey  ....Ward James
       约翰·库萨克 John Cusack  ....Hillary Van Wetter
       斯科特·格林 Scott Glenn  ....W.W. James
       Beau Brasso  ....Thug
       耐德·巴拉米 Ned Bellamy  ....Tyree van Wetter
       Katarzyna Wolejnio  ....Jennifer
       Nikolette Noel  ....Nancy
       亚当·西斯利 Adam Sibley  ....Eugene van Wetter
       Jeanine Hill  ....Honeymoon Girl
       Ava Bogle  ....Renee
       Camille Balsamo  ....Pam
       John P. Fertitta  ....Sam Ellison
       Adrienne Esteen  ....Housekeeper
       Rene' J.F. Piazza  ....Kitchen Supervisor
       Leslie Hippensteel  ....Kim
       Lorrie Chilcoat  ....Singer
       Danny Hanemann  ....Sheriff Thurmond Call
       Nicole Barré  ....Girlfriend #2 (uncredited)
       埃里克·布朗 Edrick Browne  ....Hustler #1 (uncredited)
       格兰·凯斯 Grant Case  ....Surfer Dude (uncredited)
       David A Cole  ....Extra (uncredited)
       Amye Gousset  ....Receptionist (uncredited)
       Russell M. Haeuser  ....Newspaper Reporter (uncredited)
       Emily D. Haley  ....Hospital vistor (uncredited)
       Monica R. Harris  ....Background (uncredited)
       Ken Massey  ....Newspaper Office worker (uncredited)
       John C. McCann  ....Bar Patron (uncredited)
       Danyiell Oviedo  ....Night Club Patron (uncredited)
       Shawn M. Richardz  ....Waitress (uncredited)
       Aspen Steib  ....Bartender 2 (uncredited)
       Shannon Trosclair  ....Pregnant Woman (uncredited)
       格伦·沃纳 Glen Warner  ....Transit Rider (uncredited)
       Chip Carriere  ....Coach Northcutt
       Nealla Gordon  ....Ellen Guthrie
       大卫·奥伊罗 David Oyelowo  ....Yardley
       玛西·格雷 Macy Gray  ....Anita Chester
       Kevin Waterman  ....Victim
       Peter Murnik  ....Death Row Guard
       杰伊·奥利弗 Jay Oliver  ....Mr. Guthrie / Wedding Guest (as James Oliver)
       Gary Clarke  ....Weldon Pine
       J.D. Evermore  ....Gate Guard
       Phyllis Montana LeBlanc  ....Bartender
       Paul Fisher  ....Wedding Photographer (as Paul Michael Fisher)
       Lydia Rooks  ....Charlotte Girlfriend #1
       Grace Hightower  ....Yardley's Girlfriend
       Stephanie Jordan  ....Singer #1
       Carmen Barika  ....Singer #2
       Nicole Porche  ....Singer #3
       费松·拉夫 Faizon Love  ....Comedian
       Stephen Lewis  ....Hustler #3
       Rahsaana Ison  ....Lady in Bar
       Corrina Lyons  ....Cousin Alice
       John Thompson  ....Interviewer
       Kassidy Ison  ....Little School Girl
       Kristen Beevers  ....Beach Goer (uncredited)
       John C. Klein  ....Death Row Guard (uncredited)
       Robyn Sprehe  ....Miss Betty (uncredited)


◎简   介

  《报童》改编自美国当代著名小说家皮特·德克斯特 Pete Dexter 的悬疑惊悚小说。

  一名警长被杀,与他有过结怨的redneck“庄稼人”维特(约翰·库萨克 John Cusack 饰)被判入狱。警长卡尔曾经将维特的侄子带上手铐活活折磨致死。在监狱里,维特开始与一名叫做夏洛特·布莱斯(妮可·基德曼 Nicole Kidman 饰)的女人通信,后者声称爱上了他,并且不顾惜一切地要为他洗脱罪名。布莱斯找到了来自迈阿密的记者瓦德·詹姆斯(马修·麦康纳 Matthew McConaughey 饰),后者相信维特是无辜的,是人们对于“庄稼人”偏见的牺牲品。只要能为维特翻案,说不定就有一座普利策奖在等着他。

  詹姆斯回到了自己出生同时也是案发的佛罗里达小城,和他的弟弟杰克(扎克·埃夫隆 Zac Efron 饰)以及布莱斯三人驾驶着敞篷车,开始了寻找“真相” ······



   General #1
      ID : 1 (0x1)
      Complete name : 00000.m2ts
      Format : BDAV
      Format/Info : Blu-ray Video
      File size : 17.1 GiB
      Duration : 1h 46mn
      Overall bit rate mode : Variable
      Overall bit rate : 22.9 Mbps
      Maximum Overall bit rate : 35.5 Mbps
   Video #4113
      ID : 4113 (0x1011)
      Menu ID : 1 (0x1)
      Format : AVC
      Format/Info : Advanced Video Codec
      Format profile : High@L4.1
      Format settings, CABAC : Yes
      Format settings, ReFrames : 2 frames
      Codec ID : 27
      Duration : 1h 46mn
      Bit rate mode : Variable
      Bit rate : 21.1 Mbps
      Width : 1 920 pixels
      Height : 1 080 pixels
      Display aspect ratio : 16:9
      Frame rate : 23.976 fps
      Color space : YUV
      Chroma subsampling : 4:2:0
      Bit depth : 8 bits
      Scan type : Progressive
      Bits/(Pixel*Frame) : 0.424
      Stream size : 15.7 GiB (92%)
   Audio #4352
      ID : 4352 (0x1100)
      Menu ID : 1 (0x1)
      Format : TrueHD / AC-3
      Mode extension : CM (complete main)
      Format settings, Endianness : Big
      Muxing mode : Stream extension
      Codec ID : 131
      Duration : 1h 46mn
      Bit rate mode : Variable / Constant
      Bit rate : 640 Kbps
      Maximum bit rate : 2 244 Kbps
      Channel(s) : 6 channels
      Channel positions : Front: L C R, Side: L R, LFE
      Sampling rate : 48.0 KHz
      Bit depth : 16 bits
      Stream size : 489 MiB (3%)
      Language : English
   Audio #4353
      ID : 4353 (0x1101)
      Menu ID : 1 (0x1)
      Format : AC-3
      Format/Info : Audio Coding 3
      Mode extension : CM (complete main)
      Format settings, Endianness : Big
      Codec ID : 129
      Duration : 1h 46mn
      Bit rate mode : Constant
      Bit rate : 256 Kbps
      Channel(s) : 2 channels
      Channel positions : Front: L R
      Sampling rate : 48.0 KHz
      Bit depth : 16 bits
      Compression mode : Lossy
      Stream size : 195 MiB (1%)
      Language : English
   Text #4608
      ID : 4608 (0x1200)
      Menu ID : 1 (0x1)
      Format : PGS
      Codec ID : 144
      Delay relative to video : 4s 296ms
      Language : Chinese
   Text #4609
      ID : 4609 (0x1201)
      Menu ID : 1 (0x1)
      Format : PGS
      Codec ID : 144
      Delay relative to video : 4s 296ms
      Language : Chinese
   Text #4610
      ID : 4610 (0x1202)
      Menu ID : 1 (0x1)
      Format : PGS
      Codec ID : 144
      Delay relative to video : 4s 296ms
      Language : English
   Text #4611
      ID : 4611 (0x1203)
      Menu ID : 1 (0x1)
      Format : PGS
      Codec ID : 144
      Delay relative to video : 4s 296ms
      Language : Spanish
  评论这张
 
阅读(108)| 评论(0)
推荐 转载

历史上的今天

在LOFTER的更多文章

评论

<#--最新日志,群博日志--> <#--推荐日志--> <#--引用记录--> <#--博主推荐--> <#--随机阅读--> <#--首页推荐--> <#--历史上的今天--> <#--被推荐日志--> <#--上一篇,下一篇--> <#-- 热度 --> <#-- 网易新闻广告 --> <#--右边模块结构--> <#--评论模块结构--> <#--引用模块结构--> <#--博主发起的投票-->
 
 
 
 
 
 
 
 
 
 
 
 
 
 

页脚

网易公司版权所有 ©1997-2017