注册 登录  
 加关注
   显示下一条  |  关闭
温馨提示!由于新浪微博认证机制调整,您的新浪微博帐号绑定已过期,请重新绑定!立即重新绑定新浪微博》  |  关闭

逆风飞翔的鸟

追逐风中散落的默契~

 
 
 

日志

 
 
关于我

曾经迷惑于一份距离 曾经感动于一个传说 …… 在仆仆风中 我伸手 抓住你我的缘分 …… “傻傻”的你 能闻到风中 你我的默契吗?!

网易考拉推荐

【动画】Oblivion.Island.Haruka.And.The.Magic.Mirror.2009.弃宝之岛:遥与魔法镜  

2013-02-13 10:32:09|  分类: 动画 |  标签: |举报 |字号 订阅

  下载LOFTER 我的照片书  |
【动画】Oblivion.Island.Haruka.And.The.Magic.Mirror.2009.弃宝之岛:遥与魔法镜 - 归鸿 - 逆风飞翔的鸟
★片名:弃宝之岛:遥与魔法镜/弃宝之岛 Oblivion Island :Haruka And The Magic Mirror
★首映日期:2009年8月22日
★影片类型:动画/冒险  
★画面:1080p High-Definition Widescreen 1.78:1
★片长:01:39:09
★音效:日文
★字幕:中文
★导演:佐藤信介 Shinsuke Sato
★主演:绫濑遥 Haruka Ayase
        户田菜穗 Naho Toda
        大森南朋 Nao Omori
        谷村美月 Mitsuki Tanimura


【内容介绍】

    个性坚强的小遥是个平凡的高中生,她从小失去了母亲,由父亲一手养育长大。    故事开始于小遥的武藏野之行。小遥小时候经常在武藏野的神社玩,重游故地时,小遥突然看见一只奇怪的狐狸在搬运旧式的玩具飞机。小遥追着狐狸在树林里迷路了。她遇到一个神奇的水洼,在把手伸进取的刹那,小遥被吸入了奇妙的世界——“弃宝之岛”。  
 
    弃宝之岛上聚集着被人类丢弃的东西。小遥又见到了那只狐狸,狐狸是岛上的居民,名叫特奥。小遥找到了童年时代十分珍爱的小羊娃娃,接着她想起了小时候的另一个宝贝:“以前妈妈卖给我的随身镜不见了,它现在在哪里?”小遥拉着特奥帮她一起照镜子,特奥虽然不情愿,但又不好坚拒,两人背着岛上的其他生物展开了旅程。

    弃宝之岛是人类不能进入的禁地,虽然小遥很小心,但依然被“男爵”觉察到了她的存在。最终小遥能找到镜子么?能回到自己的世界么?

【STAFF】
监督:佐藤信介  
脚本:安达宽高
人物设定:石森连
演出:岩谷直义   
CG设计:长崎高士   
美术监督:野村正信  
编辑:今井刚  
音响监督:宇井孝司  
音乐:上田祯  
动画制作:Production I.G

【CAST】
遥:绫濑遥  
特欧:泽城美雪   
咕咚:松元环季   
遥的妈妈:户田菜穗   
遥的爸爸:大森南朋   
美惠:古村美月   
男爵:家弓家正



   General #1
      ID : 1 (0x1)
      Complete name : 00000.m2ts
      Format : BDAV
      Format/Info : Blu-ray Video
      File size : 24.6 GiB
      Duration : 1h 39mn
      Overall bit rate mode : Variable
      Overall bit rate : 35.5 Mbps
      Maximum Overall bit rate : 35.5 Mbps
   Video #4113
      ID : 4113 (0x1011)
      Menu ID : 1 (0x1)
      Format : AVC
      Format/Info : Advanced Video Codec
      Format profile : High@L4.1
      Format settings, CABAC : Yes
      Format settings, ReFrames : 4 frames
      Codec ID : 27
      Duration : 1h 39mn
      Bit rate mode : Variable
      Bit rate : 33.2 Mbps
      Maximum bit rate : 38.0 Mbps
      Width : 1 920 pixels
      Height : 1 080 pixels
      Display aspect ratio : 16:9
      Frame rate : 23.976 fps
      Standard : NTSC
      Color space : YUV
      Chroma subsampling : 4:2:0
      Bit depth : 8 bits
      Scan type : Progressive
      Bits/(Pixel*Frame) : 0.668
      Stream size : 23.0 GiB (93%)
      Color primaries : BT.709
      Transfer characteristics : BT.709
      Matrix coefficients : BT.709
   Audio #4352
      ID : 4352 (0x1100)
      Menu ID : 1 (0x1)
      Format : TrueHD / AC-3
      Mode extension : CM (complete main)
      Format settings, Endianness : Big
      Muxing mode : Stream extension
      Codec ID : 131
      Duration : 1h 39mn
      Bit rate mode : Variable / Constant
      Bit rate : 448 Kbps
      Maximum bit rate : 2 958 Kbps
      Channel(s) : 6 channels
      Channel positions : Front: L C R, Side: L R, LFE
      Sampling rate : 48.0 KHz
      Bit depth : 16 bits
      Stream size : 318 MiB (1%)
      Language : English
   Audio #4353
      ID : 4353 (0x1101)
      Menu ID : 1 (0x1)
      Format : TrueHD / AC-3
      Mode extension : CM (complete main)
      Format settings, Endianness : Big
      Muxing mode : Stream extension
      Codec ID : 131
      Duration : 1h 39mn
      Bit rate mode : Variable / Constant
      Bit rate : 448 Kbps
      Maximum bit rate : 4 053 Kbps
      Channel(s) : 6 channels
      Channel positions : Front: L C R, Side: L R, LFE
      Sampling rate : 48.0 KHz
      Bit depth : 16 bits
      Stream size : 318 MiB (1%)
      Language : Japanese
   Text #4608
      ID : 4608 (0x1200)
      Menu ID : 1 (0x1)
      Format : PGS
      Codec ID : 144
      Language : Chinese
   Text #4609
      ID : 4609 (0x1201)
      Menu ID : 1 (0x1)
      Format : PGS
      Codec ID : 144
      Delay relative to video : 194ms
      Language : Chinese
   Text #4610
      ID : 4610 (0x1202)
      Menu ID : 1 (0x1)
      Format : PGS
      Codec ID : 144
      Language : English
   Text #4611
      ID : 4611 (0x1203)
      Menu ID : 1 (0x1)
      Format : PGS
      Codec ID : 144
      Language : English
  评论这张
 
阅读(138)| 评论(0)
推荐 转载

历史上的今天

在LOFTER的更多文章

评论

<#--最新日志,群博日志--> <#--推荐日志--> <#--引用记录--> <#--博主推荐--> <#--随机阅读--> <#--首页推荐--> <#--历史上的今天--> <#--被推荐日志--> <#--上一篇,下一篇--> <#-- 热度 --> <#-- 网易新闻广告 --> <#--右边模块结构--> <#--评论模块结构--> <#--引用模块结构--> <#--博主发起的投票-->
 
 
 
 
 
 
 
 
 
 
 
 
 
 

页脚

网易公司版权所有 ©1997-2017