注册 登录  
 加关注
   显示下一条  |  关闭
温馨提示!由于新浪微博认证机制调整,您的新浪微博帐号绑定已过期,请重新绑定!立即重新绑定新浪微博》  |  关闭

逆风飞翔的鸟

追逐风中散落的默契~

 
 
 

日志

 
 
关于我

曾经迷惑于一份距离 曾经感动于一个传说 …… 在仆仆风中 我伸手 抓住你我的缘分 …… “傻傻”的你 能闻到风中 你我的默契吗?!

网易考拉推荐

【剧情】My.Mother's.Castle.1990.再渡艳阳天  

2013-02-13 10:20:45|  分类: 剧情 |  标签: |举报 |字号 订阅

  下载LOFTER 我的照片书  |
【剧情】My.Mothers.Castle.1990.再渡艳阳天 - 归鸿 - 逆风飞翔的鸟
◎译   名 母亲的城堡/再渡艳阳天/告别艳阳天/再见艳阳天
◎片   名 Le chateau de ma mère / My Mother's Castle
◎年   代 1990
◎国   家 法国
◎类   别 喜剧/剧情/爱情/传记/冒险
◎IMDB链接   http://www.imdb.com/title/tt0099266/
◎语   言 法语
◎字   幕 中文  
◎片   长 98 mins 30 seconds
◎导   演 伊夫·罗伯特 Yves Robert
◎主   演 菲利普·科贝尔 Philippe Caubère  ....Joseph Pagnol
       娜莎丽·罗赛 Nathalie Roussel  ....Augustine
       让·卡米特 Jean Carmet  ....Le garde ivrogne
       让·雷谢夫 Jean Rochefort  ....Lo?s de Montmajour/Adolphe Cassignole
       Didier Pain  ....Oncle jules
       Thérèse Liotard  ....Tante rose
       Julien Ciamaca  ....Marcel
       Victorien Delamare  ....Paul
       Joris Molinas  ....Lili des Bellons
       Julie Timmerman  ....Isabelle
       Paul Crauchet  ....Mond des Parpaillouns
       Philippe Uchan  ....Bouzigue
       Patrick Préjean  ....Dominique, le jardinier
       Pierre Maguelon  ....Fran?ois
       Michel Modo  ....le facteur
       Georges Wilson  ....Le comte colonel
       Jean-Pierre Darras  ....Récitant/Narrator (voice)
       Josy Andrieu
       André Chaumeau
       Raoul Curet  ....Monsieur Vincent
       Alain Ganas
       Ticky Holgado
       Jean-Marie Juan
       Louis Lalanne
       Maxime Lombard  ....Monsieur Arnaud
       René Loyon  ....Monsieur Besson
       Elisabeth Macocco
       Jean Maurel
       Ivan Romeuf


◎简   介  

  《父亲的荣耀》和《母亲的城堡》是20世纪初发生普罗旺斯小山村里的温馨故事,这两部电影均改编自Marcel Pagnol写的自传体小说,讲述作者回忆童年时光的琐事,也叫《初渡艳阳天》和《再见艳阳天》。

  《母亲的城堡》是《初识艳阳天》的姐妹篇,由导演伊维斯·罗伯特率演员菲利普·歌贝尔等再度合作。本片以马歇的母亲为中心,描写全家人重返罗旺斯山区度假,但引来父亲约瑟夫不悦。于是在母亲一手策划下,全家每星期上山度周末,因路途遥远而搞得大家疲累不堪。后来约瑟夫从担任运河监工的学生手中取得公务锁匙,大家沿着运河边的城堡前进大大缩短了度假路程。不料经过其中一座城堡时,当场被一名监工逮住,父亲遭羞辱,母亲则不支昏倒。全片仍维持清新幽默的散文风格。


◎幕   后

  本片系马塞尔·帕格诺尔(Marcel Pagnol)的童年回忆,改编自法国名作家马歇儿童年逸事的散文式喜剧,与《妈妈的城堡》均由伊维斯·罗勃特导演,是姊妹作。这是令人感到内心愉悦的成长喜剧,外景风光诗情画意。另外,普罗旺斯也就是《屋顶上的骑兵》的故事发生地点。

  改编自同名传记小说,经典的法国电影,在都市的喧嚣中体验法国乡村童年的温馨回忆。



   General #1
      ID : 1 (0x1)
      Complete name : 00000.m2ts
      Format : BDAV
      Format/Info : Blu-ray Video
      File size : 18.4 GiB
      Duration : 1h 38mn
      Overall bit rate mode : Variable
      Overall bit rate : 26.7 Mbps
      Maximum Overall bit rate : 35.5 Mbps
   Video #4113
      ID : 4113 (0x1011)
      Menu ID : 1 (0x1)
      Format : AVC
      Format/Info : Advanced Video Codec
      Format profile : High@L4.1
      Format settings, CABAC : Yes
      Format settings, ReFrames : 4 frames
      Format settings, GOP : M=3, N=18
      Codec ID : 27
      Duration : 1h 38mn
      Bit rate mode : Variable
      Bit rate : 22.6 Mbps
      Maximum bit rate : 34.0 Mbps
      Width : 1 920 pixels
      Height : 1 080 pixels
      Display aspect ratio : 16:9
      Frame rate : 24.000 fps
      Standard : PAL
      Color space : YUV
      Chroma subsampling : 4:2:0
      Bit depth : 8 bits
      Scan type : Progressive
      Bits/(Pixel*Frame) : 0.454
      Stream size : 15.5 GiB (85%)
      Color primaries : BT.709
      Transfer characteristics : BT.709
      Matrix coefficients : BT.709
   Audio #4352
      ID : 4352 (0x1100)
      Menu ID : 1 (0x1)
      Format : DTS
      Format/Info : Digital Theater Systems
      Mode : 16
      Format settings, Endianness : Big
      Codec ID : 130
      Duration : 1h 38mn
      Bit rate mode : Constant
      Bit rate : 1 510 Kbps
      Channel(s) : 6 channels
      Channel positions : Front: L C R, Side: L R, LFE
      Sampling rate : 48.0 KHz
      Bit depth : 16 bits
      Compression mode : Lossy
      Stream size : 1.04 GiB (6%)
      Language : English
   Audio #4353
      ID : 4353 (0x1101)
      Menu ID : 1 (0x1)
      Format : PCM
      Format settings, Endianness : Big
      Format settings, Sign : Signed
      Muxing mode : Blu-ray
      Codec ID : 128
      Duration : 1h 38mn
      Bit rate mode : Constant
      Bit rate : 1 536 Kbps
      Channel(s) : 2 channels
      Channel positions : Front: L R
      Sampling rate : 48.0 KHz
      Bit depth : 16 bits
      Stream size : 1.06 GiB (6%)
      Language : English
   Text #4608
      ID : 4608 (0x1200)
      Menu ID : 1 (0x1)
      Format : PGS
      Codec ID : 144
      Language : Chinese
   Text #4609
      ID : 4609 (0x1201)
      Menu ID : 1 (0x1)
      Format : PGS
      Codec ID : 144
      Language : Chinese
   Text #4610
      ID : 4610 (0x1202)
      Menu ID : 1 (0x1)
      Format : PGS
      Codec ID : 144
      Language : English
  评论这张
 
阅读(145)| 评论(0)
推荐 转载

历史上的今天

在LOFTER的更多文章

评论

<#--最新日志,群博日志--> <#--推荐日志--> <#--引用记录--> <#--博主推荐--> <#--随机阅读--> <#--首页推荐--> <#--历史上的今天--> <#--被推荐日志--> <#--上一篇,下一篇--> <#-- 热度 --> <#-- 网易新闻广告 --> <#--右边模块结构--> <#--评论模块结构--> <#--引用模块结构--> <#--博主发起的投票-->
 
 
 
 
 
 
 
 
 
 
 
 
 
 

页脚

网易公司版权所有 ©1997-2017