注册 登录  
 加关注
   显示下一条  |  关闭
温馨提示!由于新浪微博认证机制调整,您的新浪微博帐号绑定已过期,请重新绑定!立即重新绑定新浪微博》  |  关闭

逆风飞翔的鸟

追逐风中散落的默契~

 
 
 

日志

 
 
关于我

曾经迷惑于一份距离 曾经感动于一个传说 …… 在仆仆风中 我伸手 抓住你我的缘分 …… “傻傻”的你 能闻到风中 你我的默契吗?!

网易考拉推荐

【剧情】Peacock.2010.孔雀镇  

2013-12-20 14:58:50|  分类: 剧情 |  标签: |举报 |字号 订阅

  下载LOFTER 我的照片书  |
【剧情】Peacock.2010.孔雀镇 - 歸鴻 - 逆风飞翔的鸟
◎译   名 孔雀镇/皮科克镇/孔雀
◎片   名 Peacock
◎年   代 2010
◎国   家 美国
◎类   别  剧情片|惊悚片
◎语   言 英语
◎字   幕 中文
◎IMDB 链接  http://www.imdb.com/title/tt1188113
◎片   长  1h:30m:41s
◎导   演  Michael Lander
◎主   演  希里安·墨菲 Cillian Murphy....John Skillpa
       艾伦·佩姬 Ellen Page....Maggie
       苏珊·萨兰登 Susan Sarandon....Fanny Crill
       乔什·卢卡斯 Josh Lucas....Officer Tom McGonigle
       比尔·普尔曼 Bill Pullman....Edmund French
       基思·卡拉丹 Keith Carradine....Mayor Ray Crill
       Bradley Steven Perry....Young John
       Graham Beckel....Connor Black
       Virginia Newcomb....Doris
       Jaimi Paige....Wanda
       Paul Cram....Kenny
       Chris Carlson....Neil
       Zoe Pappas
       Todd Thompson....Bartender
             

简  介

   孔雀镇是内布拉斯加州的一个小镇,那里发生了一场火车事故。随着调查的深入,小镇银行职员不可告人的秘密也渐渐浮出水面……

   小镇银行职员John从小受到母亲的虐待,直到一年前他妈妈终于结束了伟大的虐恋事业,撒手人间。但是John妈人走了,余威仍在。John无论如何也没有办法平衡内心的痛苦,逃避施虐的痛苦通常有两种选择,爱上施虐者,或者变成施虐者。鉴于John妈以死,John只能选择后者,于是他分裂出了一个叫做Emma的女性人格,代替他的母亲照顾他的起居生活。从那以后,John开始了他愉快和谐的精神分裂生活。每天早上他化身Emma,开始做早餐,然后在8点15分,Emma变回John吃掉自己所做的早餐,背着Emma盘算一下自己的私房钱。下班后,John在公园内惬意地荡一会子秋千,享受一下私人世界,晚上回家睡觉。男主外,女主内。Emma做家务,John赚外快,其乐融融。

   直到有一天,这平静的小日子被一个火车头打破。那里发生了一场火车事故。当Emma在家愉快的晒衣服的时候,一辆脱轨的火车撞入他家的后院,当场撞倒了Emma。。。



  General #1
    ID : 1 (0x1)
    Complete name : 00000.m2ts
    Format : BDAV
    Format/Info : Blu-ray Video
    File size : 16.0 GiB
    Duration : 1h 30mn
    Overall bit rate mode : Variable
    Overall bit rate : 25.2 Mbps
    Maximum Overall bit rate : 35.5 Mbps
  Video #4113
    ID : 4113 (0x1011)
    Menu ID : 1 (0x1)
    Format : AVC
    Format/Info : Advanced Video Codec
    Format profile : High@L4.1
    Format settings, CABAC : Yes
    Format settings, ReFrames : 4 frames
    Codec ID : 27
    Duration : 1h 30mn
    Bit rate mode : Variable
    Bit rate : 20.3 Mbps
    Maximum bit rate : 35.0 Mbps
    Width : 1 920 pixels
    Height : 1 080 pixels
    Display aspect ratio : 16:9
    Frame rate : 23.976 fps
    Standard : NTSC
    Color space : YUV
    Chroma subsampling : 4:2:0
    Bit depth : 8 bits
    Scan type : Progressive
    Bits/(Pixel*Frame) : 0.409
    Stream size : 12.9 GiB (81%)
    Color primaries : BT.709
    Transfer characteristics : BT.709
    Matrix coefficients : BT.709
  Audio #4352
    ID : 4352 (0x1100)
    Menu ID : 1 (0x1)
    Format : DTS
    Format/Info : Digital Theater Systems
    Format profile : HRA / Core
    Mode : 16
    Format settings, Endianness : Big
    Muxing mode : Stream extension
    Codec ID : 133
    Duration : 1h 30mn
    Bit rate mode : Constant
    Bit rate : 3 840 Kbps / 1 509 Kbps
    Channel(s) : 6 channels
    Channel positions : Front: L C R, Side: L R, LFE
    Sampling rate : 96.0 KHz / 48.0 KHz
    Bit depth : 24 bits
    Compression mode : Lossy
    Stream size : 2.43 GiB (15%)
    Language : English
  Text #4608
    ID : 4608 (0x1200)
    Menu ID : 1 (0x1)
    Format : PGS
    Codec ID : 144
    Delay relative to video : 17s 643ms
    Language : Chinese
  Text #4609
    ID : 4609 (0x1201)
    Menu ID : 1 (0x1)
    Format : PGS
    Codec ID : 144
    Delay relative to video : 17s 643ms
    Language : Chinese
  Text #4610
    ID : 4610 (0x1202)
    Menu ID : 1 (0x1)
    Format : PGS
    Codec ID : 144
    Delay relative to video : 17s 976ms
    Language : Portuguese
  Text #4611
    ID : 4611 (0x1203)
    Menu ID : 1 (0x1)
    Format : PGS
    Codec ID : 144
    Delay relative to video : 17s 893ms
    Language : English
  评论这张
 
阅读(97)| 评论(0)
推荐 转载

历史上的今天

在LOFTER的更多文章

评论

<#--最新日志,群博日志--> <#--推荐日志--> <#--引用记录--> <#--博主推荐--> <#--随机阅读--> <#--首页推荐--> <#--历史上的今天--> <#--被推荐日志--> <#--上一篇,下一篇--> <#-- 热度 --> <#-- 网易新闻广告 --> <#--右边模块结构--> <#--评论模块结构--> <#--引用模块结构--> <#--博主发起的投票-->
 
 
 
 
 
 
 
 
 
 
 
 
 
 

页脚

网易公司版权所有 ©1997-2017