注册 登录  
 加关注
   显示下一条  |  关闭
温馨提示!由于新浪微博认证机制调整,您的新浪微博帐号绑定已过期,请重新绑定!立即重新绑定新浪微博》  |  关闭

逆风飞翔的鸟

追逐风中散落的默契~

 
 
 

日志

 
 
关于我

曾经迷惑于一份距离 曾经感动于一个传说 …… 在仆仆风中 我伸手 抓住你我的缘分 …… “傻傻”的你 能闻到风中 你我的默契吗?!

网易考拉推荐

【亚洲】Sorry.Baby.1999.没完没了  

2013-12-20 14:39:55|  分类: 亚洲 |  标签: |举报 |字号 订阅

  下载LOFTER 我的照片书  |
【亚洲】Sorry.Baby.1999.没完没了 - 歸鴻 - 逆风飞翔的鸟
◎译  名 没完没了
◎片  名 Sorry Baby
◎年  代 1999
◎国  家 中国
◎类  别 喜剧
◎语  言 国语
◎IMDB链接  http://www.imdb.com/title/tt0276329/
◎片  长 95 Mins
◎导  演 冯小刚 Xiaogang Feng
◎主  演 傅彪 Biao Fu  ....阮大伟 Ruan Da Wei
      葛优 You Ge  ....韩冬 Han Dong
      吴倩莲 Chien-lien Wu  ....小芸
      张涵予 Hanyu Zhang  ....阮大伟朋友
      孙红雷 Honglei Sun  ....酒驾人
      徐帆 Fan Xu  ....口罩护士
      卡迪琳娜  ....阮大伟秘书


◎简  介 

  老实厚道的出租汽车司机韩冬长年把车包租给旅行社老板阮大伟,但阮大伟却长期拖欠包租费9万余元。在再三索要无效的情况下,韩冬自作聪明,将阮大伟因病住院的女友小芸从医院接出,并致电阮大伟声称将小芸“绑架”,以逼其结清欠款。一向骄横的阮大伟不相信一贯老实的韩冬会真下狠手,电话中恶语相向,并称宁可撕票也不还钱。小芸得知自己的性命在阮大伟的眼中比钱还轻,一气之下与韩冬合作捉弄阮大伟,由此上演了一出错进错出的生活喜剧。


◎幕后制作

  《没完没了》是冯小刚的第三部贺岁片,同样是用夸张的手法反映普通百姓的生活,同样充满着京味,同样表现了人与人之间的真情实感,但该片并没有取得前两部影片的轰动效应。香港演员吴倩莲的加盟是本片的一个特别之处,但她在片中并没有给观众留下深刻印象,观众看来,吴倩莲的表演显得生硬和过于严肃,没有将活泼温柔的刘小芸充分表现出来。而男配角傅彪的表演却广受好评,认为他将阮大伟的无赖相演得活灵活现,充分符合人物需要。


◎精彩对白

  ——伟哥,想吐吗?
  ——想,可我舍不得。十三,路易的,8000块钱一瓶,我舍不
得吐。

  ·看见没有,这就是典型的狂躁症,不犯病的时候跟好人一样。这样的人放到社会上去是很危险的!拿下!

  ·能不能转成慢性的?现在医学这么发达,转成慢性的一定很容易!

  ·你这人最大的优点就是能在关键时刻大义灭亲,说翻脸就翻脸,稍加训练就能成立一恐怖组织,还绰绰有余。



  General #0
    ID : 0 (0x0)
    Complete name : 00002.m2ts
    Format : BDAV
    Format/Info : Blu-ray Video
    File size : 21.8 GiB
    Duration : 1h 28mn
    Overall bit rate mode : Variable
    Overall bit rate : 35.3 Mbps
    Maximum Overall bit rate : 48.0 Mbps
  Video #4113
    ID : 4113 (0x1011)
    Menu ID : 1 (0x1)
    Format : AVC
    Format/Info : Advanced Video Codec
    Format profile : High@L4.1
    Format settings, CABAC : Yes
    Format settings, ReFrames : 4 frames
    Codec ID : 27
    Duration : 1h 28mn
    Bit rate mode : Variable
    Bit rate : 32.6 Mbps
    Maximum bit rate : 35.0 Mbps
    Width : 1 920 pixels
    Height : 1 080 pixels
    Display aspect ratio : 16:9
    Frame rate : 24.000 fps
    Standard : NTSC
    Color space : YUV
    Chroma subsampling : 4:2:0
    Bit depth : 8 bits
    Scan type : Progressive
    Bits/(Pixel*Frame) : 0.656
    Stream size : 20.1 GiB (92%)
    Color primaries : BT.709
    Transfer characteristics : BT.709
    Matrix coefficients : BT.709
  Audio #4352
    ID : 4352 (0x1100)
    Menu ID : 1 (0x1)
    Format : TrueHD / AC-3
    Mode extension : CM (complete main)
    Format settings, Endianness : Big
    Muxing mode : Stream extension
    Codec ID : 131
    Duration : 1h 28mn
    Bit rate mode : Variable / Constant
    Bit rate : 640 Kbps
    Maximum bit rate : 5 442 Kbps
    Channel(s) : 5 channels
    Channel positions : Front: L C R, Side: L R
    Sampling rate : 96.0 KHz / 48.0 KHz
    Bit depth : 16 bits
    Stream size : 404 MiB (2%)
  Audio #4353
    ID : 4353 (0x1101)
    Menu ID : 1 (0x1)
    Format : AC-3
    Format/Info : Audio Coding 3
    Mode extension : CM (complete main)
    Format settings, Endianness : Big
    Codec ID : 129
    Duration : 1h 28mn
    Bit rate mode : Constant
    Bit rate : 640 Kbps
    Channel(s) : 5 channels
    Channel positions : Front: L C R, Side: L R
    Sampling rate : 48.0 KHz
    Bit depth : 16 bits
    Compression mode : Lossy
    Stream size : 404 MiB (2%)
  Text #4608
    ID : 4608 (0x1200)
    Menu ID : 1 (0x1)
    Format : PGS
    Codec ID : 144
  Text #4609
    ID : 4609 (0x1201)
    Menu ID : 1 (0x1)
    Format : PGS
    Codec ID : 144
  Text #4610
    ID : 4610 (0x1202)
    Menu ID : 1 (0x1)
    Format : PGS
    Codec ID : 144
  评论这张
 
阅读(69)| 评论(0)
推荐 转载

历史上的今天

在LOFTER的更多文章

评论

<#--最新日志,群博日志--> <#--推荐日志--> <#--引用记录--> <#--博主推荐--> <#--随机阅读--> <#--首页推荐--> <#--历史上的今天--> <#--被推荐日志--> <#--上一篇,下一篇--> <#-- 热度 --> <#-- 网易新闻广告 --> <#--右边模块结构--> <#--评论模块结构--> <#--引用模块结构--> <#--博主发起的投票-->
 
 
 
 
 
 
 
 
 
 
 
 
 
 

页脚

网易公司版权所有 ©1997-2017