注册 登录  
 加关注
   显示下一条  |  关闭
温馨提示!由于新浪微博认证机制调整,您的新浪微博帐号绑定已过期,请重新绑定!立即重新绑定新浪微博》  |  关闭

逆风飞翔的鸟

追逐风中散落的默契~

 
 
 

日志

 
 
关于我

曾经迷惑于一份距离 曾经感动于一个传说 …… 在仆仆风中 我伸手 抓住你我的缘分 …… “傻傻”的你 能闻到风中 你我的默契吗?!

网易考拉推荐

【剧情】Stuck.in.Love.2012.困在爱中  

2013-11-27 09:27:59|  分类: 剧情 |  标签: |举报 |字号 订阅

  下载LOFTER 我的照片书  |
【剧情】Stuck.in.Love.2012.困在爱中 - 歸鴻 - 逆风飞翔的鸟
◎译  名 困在爱中/作家/困于爱中
◎片  名 Stuck in Love
◎年  代 2013
◎国  家 美国
◎类  别 剧情/喜剧
◎IMDB链接 http://www.imdb.com/title/tt2205697/
◎语  言 英语
◎字  幕 中文
◎片  长 96 mins 53 seconds
◎导  演 约什·布恩 Josh Boone
◎主  演 格雷戈·金尼尔 Greg Kinnear ....William Borgens
      詹妮弗·康纳利 Jennifer Connelly ....Erica
      莉莉·科林斯 Lily Collins ....Samantha Borgens
      克里斯汀·贝尔 Kristen Bell
      罗根·勒曼 Logan Lerman ....Lou
      斯蒂芬·金 Stephen King ....Himself
      丽亚娜·莱伯拉托 Liana Liberato ....Kate
      Rusty Joiner ....Martin
      Nat Wolff ....Rusty Borgens
      帕特里克·施瓦辛格 Patrick Schwarzenegger
      Alex ter Avest ....Becky
      格伦·鲍威尔 Glen Powell Jr. ....Glen
      Karen Malina ....Funeral Relative
      Barbara Weetman ....Diane
      克里斯·高索 Chris Cozort ....Party Guest
      Zack Mines ....Midwest
      米莉·万娜梅克 Millie Wannamaker ....Party Attendee
      Katie Garfield ....Hot Girl
      David Morris ....Rodney
      Meredith Jackson ....Student
      Zeeko Zaki ....Gus
      Nate Panning ....Bartender
      Joe Montanti ....Party Guest
      Zachary Steffey ....Fraternity Brother
      Kelly Butler ....Funeral Relative
      Amber Sheets ....Danielle
      莎侬·普拉莫-怀特 Shannon Plummer-White ....Party Guest
      Christian Tyler Dawson ....Student
      Brad Worch II ....Keg Stand Guy
      Shawn Collins ....Shopper
      Merideth Harrison ....Student (rumored)
      Scott Jecha ....Party guest
      史宾塞·布瑞斯林 Spencer Breslin ....Jason
      兰迪·格瑞齐奥 Randy Grazio ....Book Signing Guest
      Adam Moryto ....Preppy Guy
      Meagan Lynnae ....Concert Fan (credit only)
      Matthew Land ....Shop Patron
      Christopher Noel ....Student
      摩根·弗里曼 Morgan Freeman ....马尔科姆·比奇 Malcolm Beech


◎简  介 

  影片讲述了格雷戈·金尼尔饰演的作家与詹妮弗·康纳利饰演的前妻以及女儿莉莉·柯林斯之间的故事。



  General #1
    ID : 1 (0x1)
    Complete name : 00000.m2ts
    Format : BDAV
    Format/Info : Blu-ray Video
    File size : 17.0 GiB
    Duration : 1h 36mn
    Overall bit rate mode : Variable
    Overall bit rate : 25.1 Mbps
    Maximum Overall bit rate : 35.5 Mbps
  Video #4113
    ID : 4113 (0x1011)
    Menu ID : 1 (0x1)
    Format : AVC
    Format/Info : Advanced Video Codec
    Format profile : High@L4.1
    Format settings, CABAC : Yes
    Format settings, ReFrames : 4 frames
    Codec ID : 27
    Duration : 1h 36mn
    Bit rate mode : Variable
    Bit rate : 23.5 Mbps
    Maximum bit rate : 33.0 Mbps
    Width : 1 920 pixels
    Height : 1 080 pixels
    Display aspect ratio : 16:9
    Frame rate : 23.976 fps
    Color space : YUV
    Chroma subsampling : 4:2:0
    Bit depth : 8 bits
    Scan type : Progressive
    Bits/(Pixel*Frame) : 0.472
    Stream size : 15.9 GiB (93%)
  Audio #4352
    ID : 4352 (0x1100)
    Menu ID : 1 (0x1)
    Format : TrueHD / AC-3
    Mode extension : CM (complete main)
    Format settings, Endianness : Big
    Muxing mode : Stream extension
    Codec ID : 131
    Duration : 1h 36mn
    Bit rate mode : Variable / Constant
    Bit rate : 640 Kbps
    Maximum bit rate : 2 268 Kbps
    Channel(s) : 6 channels
    Channel positions : Front: L C R, Side: L R, LFE
    Sampling rate : 48.0 KHz
    Bit depth : 16 bits
    Stream size : 443 MiB (3%)
    Language : English
  Text #4608
    ID : 4608 (0x1200)
    Menu ID : 1 (0x1)
    Format : PGS
    Codec ID : 144
    Delay relative to video : 3s 3ms
    Language : Chinese
  Text #4609
    ID : 4609 (0x1201)
    Menu ID : 1 (0x1)
    Format : PGS
    Codec ID : 144
    Delay relative to video : 3s 3ms
    Language : Chinese
  Text #4610
    ID : 4610 (0x1202)
    Menu ID : 1 (0x1)
    Format : PGS
    Codec ID : 144
    Delay relative to video : 3s 3ms
    Language : Chinese
  Text #4611
    ID : 4611 (0x1203)
    Menu ID : 1 (0x1)
    Format : PGS
    Codec ID : 144
    Delay relative to video : 3s 3ms
    Language : Chinese
  Text #4612
    ID : 4612 (0x1204)
    Menu ID : 1 (0x1)
    Format : PGS
    Codec ID : 144
    Language : English
  Text #4613
    ID : 4613 (0x1205)
    Menu ID : 1 (0x1)
    Format : PGS
    Codec ID : 144
    Delay relative to video : 22s 356ms
    Language : Spanish
  评论这张
 
阅读(134)| 评论(0)
推荐 转载

历史上的今天

在LOFTER的更多文章

评论

<#--最新日志,群博日志--> <#--推荐日志--> <#--引用记录--> <#--博主推荐--> <#--随机阅读--> <#--首页推荐--> <#--历史上的今天--> <#--被推荐日志--> <#--上一篇,下一篇--> <#-- 热度 --> <#-- 网易新闻广告 --> <#--右边模块结构--> <#--评论模块结构--> <#--引用模块结构--> <#--博主发起的投票-->
 
 
 
 
 
 
 
 
 
 
 
 
 
 

页脚

网易公司版权所有 ©1997-2017