注册 登录  
 加关注
   显示下一条  |  关闭
温馨提示!由于新浪微博认证机制调整,您的新浪微博帐号绑定已过期,请重新绑定!立即重新绑定新浪微博》  |  关闭

逆风飞翔的鸟

追逐风中散落的默契~

 
 
 

日志

 
 
关于我

曾经迷惑于一份距离 曾经感动于一个传说 …… 在仆仆风中 我伸手 抓住你我的缘分 …… “傻傻”的你 能闻到风中 你我的默契吗?!

网易考拉推荐

【亚洲】Soar.Into.The.Sun.2012.壮志冲天  

2013-01-25 20:23:22|  分类: 亚洲 |  标签: |举报 |字号 订阅

  下载LOFTER 我的照片书  |
【亚洲】Soar.Into.The.Sun.2012.壮志冲天 - 归鸿 - 逆风飞翔的鸟
◎译   名 R2B:返回基地/壮志冲天(港)/R2B:猎鹰行动(台)/ 飞翔:靠近太阳/R2B:极速返航
◎片   名 ??? : ?????? / Soar Into The Sun
◎年   代 2012
◎国   家 韩国
◎类   别 剧情/动作
◎IMDB 链接 http://www.imdb.com/title/tt2253472/
◎语   言 韩语
◎字   幕 中文
◎片   长 114 mins 57 seconds
◎导   演 金东元 Dong-won kim
◎主   演 郑智薰 Rain
       申世京 Se-kyeong Shin
       刘俊相 Jun-Sang Yu
       李荷娜 Ha-na Lee
       金圣洙 Seong-su Kim
       李钟硕 Jong-suk Lee
       郑锡元 Seok-won Jeong  ....友情出演
       郑京虎 Kyeong-ho Jeon
       Joon-sang Yoo
       Bong-gi Baek
       Soo-ho Ha


◎简   介

  以韩国625战争为背景,翻拍自1964年申相玉导演的同名作品,讲述了一名战斗机飞行员爱上了牺牲战友的妻子的故事。

  天才的空军特殊飞行队号称“黑色猎鹰”的飞行员泰勋(郑智薰 Rain 饰)在一次战机空中示范表演中,使用了被明令禁止的飞行技术“无引擎减速”,结果把现场搞得一团糟,其野马脱缰般的桀骜性格也令队内领导深感头痛,索性借此将他“下放”到“21战斗飞行队”,由大曙队长(金成洙 Seong-su Kim 饰)统一领导。在队内,泰勋结识了同期生侑珍(李荷娜 Ha-na Lee 饰)和后辈锡炫(李钟硕 Jong-suk Lee 饰),并慢慢适应了新环境的生活。

  然而,一山不容二虎,泰勋和对内号称“狙击之神”的哲熙总是起争执,终于两人为尊严名誉而战的F15K飞行决战中,泰勋首次遭遇失败。随后,他与机械队最出色的机械师世英组成一队,筹谋参加“Boramae空中射击比赛”,借此恢复自尊心。某天,一架不明敌机突袭首尔上空,毫无准备的21战斗飞行队与其展开了殊死搏斗,虽然损失惨重,但到底控制住了局面。然而,风波并未就此停止。整个半岛陷入了更大的阴谋漩涡。21战斗飞行队最后下令执行特别作战计划——R2B:返回基地。7分钟的决战,在此一举 ······


◎幕后制作
  
韩国版《壮志凌云》

  《海云台》带来了惊天海啸,《汉江怪物》捧红了变种食人兽,喜人的票房成绩让忠武路影人看到了“高科技+高成本”的诱人回报率。于是跃跃欲试地交出了《R2B:返回基地》这张令人兴奋的成绩单。

  从影片的谋篇布局来看,导演金东元无疑想将其打造为韩国版的《壮志凌云》,而且将高空战斗场面移植到首都上空,并将首尔的地标性建筑,如63大楼、元晓大桥、汉江等囊括进镜头,算得上是惊人之举。为了强调真实性,剧组特别采用F-15K和TA-50两款战机实景拍摄。F-15K战斗机是美国F-15的韩国版,该战斗机应用了最新的技术升级,作战能力和可维护性都非常强大;而TA-50则是国产超音速战斗入门训练机,飞行性能优异,可有效探测60公里以外的敌机。但毕竟让这些庞然大物出现在首尔上空是不可能的事情,因此必然要借助电脑特技的帮助。为此,剧组特别邀请了曾参与《盗梦空间》、《蝙蝠侠》等好莱坞电影的特效团队共同缔造了前所未见的空战场面,吊足了影迷的胃口。导演金东勋表示:“由于这是我首次尝试空中动作作品,所以需要做的准备有很多,但是事实上我并没有对战斗机做很多的资料收集。实际上很多场面都想要真实拍摄,因此动用了美国特殊航空队方面的技术,背景是在美国拍摄了云层后,再进行后期制作的,真实场景和后期特效制作的比率是一半一半。”

  此外,影片在音效方面也下足了工夫,这部韩国影史上首部空战巨制将配以4DX规格上映,发行公司CJ E&M表示,“观众可以通过4DX形式来体验《R2B:重返基地》的高空翻腾、极速飞跃等惊心动魄的场景,观影全程以3D立体声音形式呈现。”而所谓“4DX规格”是以座椅的实时动感,结合吹风、喷气体等刺激感官的电影放映系统。3D立体声音是把电影全部的声音和音响素材制作成3D效果,是目前世界上最尖端的电影放映系统,在韩国拥有这种系统的CGV分别在清潭洞和永登浦。
  
群星在云端集合

  从7.5km到13000km,这次拍摄的高度令人咋舌,也需要演员们付出更多努力,无论是精神上的还是肉体上的。为此,所有演员都参加了专业辅导训练。飞行训练自不在话下,还包括低压训练、紧急逃生训练等,还参与到士官学校的生活中去,切身体验军人的生活方式和日常对话方式。高强度的训练让所有演员身心疲惫,却也收获颇丰,男主角Rain甚至具备了成为飞行员的所有要求。从“国民老公”转型为战斗机飞行员的刘俊相说:“实拍中遇到了很多危险的瞬间,遗憾的地方也不少,那时候很累。但我们面对挑战,沉浸在电影中。”女主角申世京这样分析自己的角色:“我本来以为她是个气质潇洒冷艳的角色,但看完样片,也感觉这个角色很可爱。我非常荣幸能够出演了位英姿飒爽的女机械师。”金圣洙说也说:“大家都经历非常艰苦的日子, 但看了电影却感到很满足。” 出演女飞行员的李荷娜说, “拍片过程中,我见到了一位真正的女飞行员,跟她聊了很久,对自己的角色也有了更深认识。”而对年龄最小的李钟硕来说,这次拍摄无疑是一次绝佳的历练,可以和自己的偶像Rain同台飙戏,他感到异常兴奋。


◎花   絮

·RAIN为了拍摄影片,在空军航空宇宙医疗院接受了航空生理训练并体验了飞行员的真实生活,甚至还通过了普通飞行员都感到困难加速度训练测试。

·影片的演职人员在空军第11战斗飞行团进行拍摄前全部经历了政审。

·翻拍自1964年申相玉导演的以625战争为背景的空战影片《红色围巾》。

·新人李钟硕凭《秘密花园》走红后的大银幕处女作。

·申世京原本和Rain有一场吻戏,最后被删,她笑称:“就把这个吻当做个人收藏好了!”

·《R2B:返回基地》VIP首映式吸引了李孝利、金在中、金宣儿、SEVEN、尹继尚、Wondergirls、2PM、郑俊浩、 郑浩彬、柳善、白允植等韩国顶级演员和歌手参加,气氛异常火爆。

·影片的亚洲首映礼首创多语言字幕同时放映环节,CJE&M为此准备了英、日、中文的字幕版本,活动参与人数超过2000人。

·影片宣传期间,男主角Rain尚在军队服役,片方特别制作了他的易拉宝模型,成为人们争相合影的对象。

·影片后期制作长达十个月之久。

·本片是女星李荷娜时隔两年再度回归大银幕之作。



  General #1
    ID : 1 (0x1)
    Complete name : 00000.m2ts
    Format : BDAV
    Format/Info : Blu-ray Video
    File size : 21.8 GiB
    Duration : 1h 54mn
    Overall bit rate mode : Variable
    Overall bit rate : 27.2 Mbps
    Maximum Overall bit rate : 35.5 Mbps
  Video #4113
    ID : 4113 (0x1011)
    Menu ID : 1 (0x1)
    Format : AVC
    Format/Info : Advanced Video Codec
    Format profile : High@L4.1
    Format settings, CABAC : Yes
    Format settings, ReFrames : 4 frames
    Format settings, GOP : M=3, N=24
    Codec ID : 27
    Duration : 1h 54mn
    Bit rate mode : Variable
    Bit rate : 25.4 Mbps
    Maximum bit rate : 31.0 Mbps
    Width : 1 920 pixels
    Height : 1 080 pixels
    Display aspect ratio : 16:9
    Frame rate : 24.000 fps
    Standard : NTSC
    Color space : YUV
    Chroma subsampling : 4:2:0
    Bit depth : 8 bits
    Scan type : Progressive
    Bits/(Pixel*Frame) : 0.511
    Stream size : 20.4 GiB (94%)
    Color primaries : BT.709
    Transfer characteristics : BT.709
    Matrix coefficients : BT.709
  Audio #4352
    ID : 4352 (0x1100)
    Menu ID : 1 (0x1)
    Format : TrueHD / AC-3
    Mode extension : CM (complete main)
    Format settings, Endianness : Big
    Muxing mode : Stream extension
    Codec ID : 131
    Duration : 1h 54mn
    Bit rate mode : Variable / Constant
    Bit rate : 640 Kbps
    Maximum bit rate : 5 154 Kbps
    Channel(s) : 6 channels
    Channel positions : Front: L C R, Side: L R, LFE
    Sampling rate : 96.0 KHz / 48.0 KHz
    Bit depth : 16 bits
    Stream size : 526 MiB (2%)
    Language : Korean
  Text #4608
    ID : 4608 (0x1200)
    Menu ID : 1 (0x1)
    Format : PGS
    Codec ID : 144
    Language : Chinese
  Text #4609
    ID : 4609 (0x1201)
    Menu ID : 1 (0x1)
    Format : PGS
    Codec ID : 144
    Language : English
  评论这张
 
阅读(222)| 评论(0)
推荐 转载

历史上的今天

在LOFTER的更多文章

评论

<#--最新日志,群博日志--> <#--推荐日志--> <#--引用记录--> <#--博主推荐--> <#--随机阅读--> <#--首页推荐--> <#--历史上的今天--> <#--被推荐日志--> <#--上一篇,下一篇--> <#-- 热度 --> <#-- 网易新闻广告 --> <#--右边模块结构--> <#--评论模块结构--> <#--引用模块结构--> <#--博主发起的投票-->
 
 
 
 
 
 
 
 
 
 
 
 
 
 

页脚

网易公司版权所有 ©1997-2017