注册 登录  
 加关注
   显示下一条  |  关闭
温馨提示!由于新浪微博认证机制调整,您的新浪微博帐号绑定已过期,请重新绑定!立即重新绑定新浪微博》  |  关闭

逆风飞翔的鸟

追逐风中散落的默契~

 
 
 

日志

 
 
关于我

曾经迷惑于一份距离 曾经感动于一个传说 …… 在仆仆风中 我伸手 抓住你我的缘分 …… “傻傻”的你 能闻到风中 你我的默契吗?!

网易考拉推荐
GACHA精选

【剧情】Following.1998.跟踪  

2013-01-25 19:35:24|  分类: 剧情 |  标签: |举报 |字号 订阅

  下载LOFTER 我的照片书  |
【剧情】Following.1998.跟踪 - 归鸿 - 逆风飞翔的鸟
◎译   名 追随/致命追踪/跟踪/尾行
◎片   名 Following
◎年   代 1998
◎国   家 英国
◎类   别 犯罪/剧情/神秘/惊悚
◎IMDB 链接  http://www.imdb.com/title/tt0154506/
◎语   言 英语
◎字   幕 中文
◎片   长 70 mins 11 seconds
◎导   演 克里斯托弗·诺兰 Christopher Nolan
◎主   演 杰里米·希尔伯德 Jeremy Theobald ....The Young Man
       艾利克斯·豪 Alex Haw ....Cobb
       露西·拉塞尔 Lucy Russell ....The Blonde
       艾玛·托马斯 Emma Thomas
       约翰·诺兰 John Nolan ....The Policeman
       Dick Bradsell ....The Bald Guy
       Gillian El-Kadi ....Home Owner
       Jennifer Angel ....Waitress
       Nicolas Carlotti ....Barman
       Darren Ormandy ....Accountant
       Guy Greenway ....Heavy #1
       Tassos Stevens ....Heavy #2
       Tristan Martin ....Man at Bar
       Rebecca James ....Woman at Bar
       Paul Mason ....Home Owner‘s Friend
       David Bovill ....Home Owner‘s Husband
       John Bengue
       Ivan Cornell
       Jane Hunter
       Matthew Jones
       David Julyan
       David Lloyd
       Alberto Mattiussi ....Bitter Man in Cafe (as Alberto Matiussi)
       Brendan Nolan
       Barbara Stepansky
       Diane Zack

◎简   介

  比尔(杰里米·希尔伯德 Jeremy Theobald 饰)是个游手好闲的作家,借跟踪陌生人打发时间,希望从中能找到一些灵感。这让他体验到形形色色的人生,很神秘,也很刺激。不过,有一次,比尔盯上了一个西服革履的家伙柯布(艾利克斯·豪 Alex Haw 饰)。尾随到餐厅之后,他却被对方识破,只得摊牌。柯布是个贩卖盗版光碟的商贩,此外还做拧门撬锁的勾当。比尔希望能在盗窃中得到一些写作的素材,于是就跟着柯布一起行窃。柯布带着比尔潜入了陌生人家中,但比尔发现柯布根本不取财物,而是寻找主人蓄意掩盖的隐私。同时,柯布还提醒比尔要注意仪表。

  后来,比尔认识了一个神秘的金发女人(露西·拉塞尔 Lucy Russell 饰)。在酒吧,比尔主动与她调情,但是对方冷若冰霜。原来她是黑社会大佬的女人,但是不可遏制的激情让比尔失去了理智,开始和她交往,从而堕入了万劫不复的深渊;与此同时,柯布正策划着一个大阴谋 ······


◎一句话评论

You‘re Never Alone.


◎幕后制作

   这部不到70分钟的黑白片,以倒叙作为基本的电影叙事语言,然后在倒叙的基础上又将时间彻底地敲碎,然后诺兰将这些时间的碎片粘贴在一起,电影本身的故事并没有改变,但这样的拼贴使,于是,这部不到70分钟的电影有了不可思议的长度。《追随》怀揣着年轻的梦想与野心。


◎获奖情况

1999年 鹿特丹国际电影节 Tiger Award 克里斯托弗·诺兰

1999年 Slamdance Film Festival Black White Award 克里斯托弗·诺兰

1999年 Newport International Film Festival Best Director Award 克里斯托弗·诺兰


  General #1
    ID : 1 (0x1)
    Complete name : 00000.m2ts
    Format : BDAV
    Format/Info : Blu-ray Video
    File size : 21.3 GiB
    Duration : 1h 10mn
    Overall bit rate mode : Variable
    Overall bit rate : 43.5 Mbps
    Maximum Overall bit rate : 35.5 Mbps
  Video #4113
    ID : 4113 (0x1011)
    Menu ID : 1 (0x1)
    Format : AVC
    Format/Info : Advanced Video Codec
    Format profile : High@L4.1
    Format settings, CABAC : Yes
    Format settings, ReFrames : 4 frames
    Codec ID : 27
    Duration : 1h 10mn
    Bit rate mode : Variable
    Maximum bit rate : 37.0 Mbps
    Width : 1 920 pixels
    Height : 1 080 pixels
    Display aspect ratio : 16:9
    Frame rate : 23.976 fps
    Color space : YUV
    Chroma subsampling : 4:2:0
    Bit depth : 8 bits
    Scan type : Progressive
  Audio #4352
    ID : 4352 (0x1100)
    Menu ID : 1 (0x1)
    Format : DTS
    Format/Info : Digital Theater Systems
    Format profile : MA / Core
    Mode : 16
    Format settings, Endianness : Big
    Muxing mode : Stream extension
    Codec ID : 134
    Duration : 1h 10mn
    Bit rate mode : Variable
    Bit rate : Unknown / 1 509 Kbps
    Channel(s) : 6 channels
    Channel positions : Front: L C R, Side: L R, LFE
    Sampling rate : 48.0 KHz
    Bit depth : 24 bits
    Compression mode : Lossless / Lossy
    Language : English
  Audio #4353
    ID : 4353 (0x1101)
    Menu ID : 1 (0x1)
    Format : PCM
    Format settings, Endianness : Big
    Format settings, Sign : Signed
    Muxing mode : Blu-ray
    Codec ID : 128
    Duration : 1h 10mn
    Bit rate mode : Constant
    Bit rate : 1 152 Kbps
    Encoded bit rate : 2 304 Kbps
    Channel(s) : 1 channel
    Channel positions : Front: C
    Sampling rate : 48.0 KHz
    Bit depth : 24 bits
    Stream size : 578 MiB (3%)
    Language : English
  Audio #4354
    ID : 4354 (0x1102)
    Menu ID : 1 (0x1)
    Format : AC-3
    Format/Info : Audio Coding 3
    Mode extension : CM (complete main)
    Format settings, Endianness : Big
    Codec ID : 129
    Duration : 1h 10mn
    Bit rate mode : Constant
    Bit rate : 192 Kbps
    Channel(s) : 2 channels
    Channel positions : Front: L R
    Sampling rate : 48.0 KHz
    Bit depth : 16 bits
    Compression mode : Lossy
    Stream size : 96.4 MiB (0%)
    Language : English
  Text #4608
    ID : 4608 (0x1200)
    Menu ID : 1 (0x1)
    Format : PGS
    Codec ID : 144
    Language : Chinese
  Text #4609
    ID : 4609 (0x1201)
    Menu ID : 1 (0x1)
    Format : PGS
    Codec ID : 144
    Language : Chinese
  Text #4610
    ID : 4610 (0x1202)
    Menu ID : 1 (0x1)
    Format : PGS
    Codec ID : 144
    Language : English
  评论这张
 
阅读(133)| 评论(0)
推荐 转载

历史上的今天

在LOFTER的更多文章

评论

<#--最新日志,群博日志--> <#--推荐日志--> <#--引用记录--> <#--博主推荐--> <#--随机阅读--> <#--首页推荐--> <#--历史上的今天--> <#--被推荐日志--> <#--上一篇,下一篇--> <#-- 热度 --> <#-- 网易新闻广告 --> <#--右边模块结构--> <#--评论模块结构--> <#--引用模块结构--> <#--博主发起的投票-->
 
 
 
 
 
 
 
 
 
 
 
 
 
 

页脚

网易公司版权所有 ©1997-2017