注册 登录  
 加关注
   显示下一条  |  关闭
温馨提示!由于新浪微博认证机制调整,您的新浪微博帐号绑定已过期,请重新绑定!立即重新绑定新浪微博》  |  关闭

逆风飞翔的鸟

追逐风中散落的默契~

 
 
 

日志

 
 
关于我

曾经迷惑于一份距离 曾经感动于一个传说 …… 在仆仆风中 我伸手 抓住你我的缘分 …… “傻傻”的你 能闻到风中 你我的默契吗?!

网易考拉推荐

【亚洲】Zombie.108.2012.弃城  

2013-01-25 22:33:13|  分类: 亚洲 |  标签: |举报 |字号 订阅

  下载LOFTER 我的照片书  |
【亚洲】Zombie.108.2012.弃城 - 归鸿 - 逆风飞翔的鸟
◎片   名 Z-108弃城/Z-108棄城
◎译   名 Zombie108/Z-108
◎年   代 2012
◎国   家 台灣
◎类   别 动作/恐怖/奇幻/惊悚
◎IMDB 链接 http://www.imdb.com/title/tt2328841/
◎语   言 国语
◎字   幕 中文
◎片   长 86 mins 9 seconds
◎导   演 钱人豪 Joe Chien
◎主   演 姚采颖 Caiying Yao
       戎祥 Cheung Yung
       太保 Po Tai
       周韦彤 Weitong Zhou
       高捷 Jack Kao
       杜宇航 Yu-Hang To
       林佳陵 Lena Lin
       庹宗康 Zongkang Tuo
       刘畊宏 Liu Keng Hung
       程秀瑛 Cheng Hsiu-ying
       陈致远 Zhi-yuan Chen
       朱木炎 Mu-yan Zhu


◎简   介

  谁都没有想到,台北居然有一天会变成空城。某日,女子LINDA在开车在途中遭遇车祸,继而因为安全气囊爆开撞击而昏迷,等她清醒过来挣扎着从变形的车子爬出来,眼前居然是满目疮痍。原本熟悉的城市,原本熟悉的街景好像变的有些扭曲。时间应该是上班时间吧,怎麽整个天空却是灰蒙蒙的好像是凌晨一般,整个路上为什麽都没有一个人……她试着拨打手机,却没有一点讯号……

  马路上还停摆着好几辆还没熄火的汽车,有的车门甚至是打开的,她探头进去看,有的车钥匙还插在车上,驾驶座旁还放着车主的手机……整个城市的人居然都不翼而飞。原本喧嚣的城市现在却是一点声音都没有,好像只剩下她一个人存在。

  她一直呼叫寻找着希望能找到除了她自己以外的人,没想到却呼叫来了…………

  在黑暗、暴力与毒品充斥与流窜于西门町,两个流落在台湾的外国人却不慎闯入了这个连上帝都选择遗弃的城市角落,还遇上了一场黑道交易,引来追杀。

  由于核危机,流感病毒发生突变,一群被感染的年轻人并没有注意他们的疾病,直到一个醉酒的狂欢夜他们开始尖叫的喷血。政府下令连夜撤离所有西门町的居民,然而地下帮派根本不知道这件讯息;同时间、特种部队正闯入,准备执行格杀命令,企图瓦解盘据西门町区已久的黑社会组织,然而、角头老大的亲信小弟们却突然变成活尸四处咬噬,顿时、西门町血肉横飞,逼迫着互不信任的黑道、警察、特种部队、还有平民们,不得不携手逃出生天,然而表面虽然彼此合作,暗自里却仍勾心斗角,甚至上演街头格斗、自相残杀。

  若干年后,在这个活尸横行霸道的年代,西门町是被隔离的108区,甚至整个台北市少数还存活的居民全部往南部迁移……当台湾北部毁灭后,已经没有活人,唯一在行动的只剩下了丧尸。

  人类将寻找下一个希望的城市。南都高雄有可能将成为下一个人类希望聚集之地。这真的是人类最后一个机会吗?! 


◎相关资料

  号称台湾首部“丧尸”电影的《Z-108弃城》于2011年7月曝光首支预告片,故事以虚构的末世台北为背景,从预告片来看,既有幸存人类与丧尸的惨烈战斗,又不乏破尺度的激情场面,十足B级片风范,因是台湾电影首度涉足“丧尸”题材,因此自今年四月开拍以来备受关注,成为话题作。据担任影片制作人及主演的知名艺人戎祥表示,《弃城》影像风格以《生化危机》和《我是传奇》为蓝本,主打看点就是“正妹+丧尸”,因此,网罗了多位身材惹火的名模女星上阵,包括姚采颖、林佳陵、周韦彤等,此外,实力派艺人高捷、太保、庹宗康等也友情参演,戎祥更说服台湾著名职业棒球选手陈致远加盟,出演剿灭丧尸的特警指挥官。而担任导演的则是曾执导过《纽扣人》、《混混天团》的新锐导演钱人豪。《弃城》利用Facebook串连网友捐款的方式募集到大部分资金,戎祥和钱人豪在开机时募得新台币872万,其余部分由二人联合投资及申请“电影未来会申请自制片辅导金”来完成。2011年6月底,影片在台北举行了盛大的杀青酒会,目前已正式转入后期制作,如果顺利,预计将于2011年底前在台湾上映。



  General #1
    ID : 1 (0x1)
    Complete name : 00000.m2ts
    Format : BDAV
    Format/Info : Blu-ray Video
    File size : 17.4 GiB
    Duration : 1h 26mn
    Overall bit rate mode : Variable
    Overall bit rate : 28.9 Mbps
    Maximum Overall bit rate : 35.5 Mbps
  Video #4113
    ID : 4113 (0x1011)
    Menu ID : 1 (0x1)
    Format : AVC
    Format/Info : Advanced Video Codec
    Format profile : High@L4.1
    Format settings, CABAC : Yes
    Format settings, ReFrames : 4 frames
    Codec ID : 27
    Duration : 1h 26mn
    Bit rate mode : Variable
    Bit rate : 26.5 Mbps
    Maximum bit rate : 32.0 Mbps
    Width : 1 920 pixels
    Height : 1 080 pixels
    Display aspect ratio : 16:9
    Frame rate : 24.000 fps
    Standard : NTSC
    Color space : YUV
    Chroma subsampling : 4:2:0
    Bit depth : 8 bits
    Scan type : Progressive
    Bits/(Pixel*Frame) : 0.532
    Stream size : 15.9 GiB (92%)
    Color primaries : BT.709
    Transfer characteristics : BT.709
    Matrix coefficients : BT.709
  Audio #4352
    ID : 4352 (0x1100)
    Menu ID : 1 (0x1)
    Format : TrueHD / AC-3
    Mode extension : CM (complete main)
    Format settings, Endianness : Big
    Muxing mode : Stream extension
    Codec ID : 131
    Duration : 1h 26mn
    Bit rate mode : Variable / Constant
    Bit rate : 640 Kbps
    Maximum bit rate : 4 740 Kbps
    Channel(s) : 8 channels / 6 channels
    Channel positions : Front: L C R, Side: L R, Back: L R, LFE / Front: L C R, Side: L R, LFE
    Sampling rate : 96.0 KHz / 48.0 KHz
    Bit depth : 16 bits
    Stream size : 394 MiB (2%)
    Language : Chinese
  Audio #4353
    ID : 4353 (0x1101)
    Menu ID : 1 (0x1)
    Format : AC-3
    Format/Info : Audio Coding 3
    Mode extension : CM (complete main)
    Format settings, Endianness : Big
    Codec ID : 129
    Duration : 1h 26mn
    Bit rate mode : Constant
    Bit rate : 640 Kbps
    Channel(s) : 6 channels
    Channel positions : Front: L C R, Side: L R, LFE
    Sampling rate : 48.0 KHz
    Bit depth : 16 bits
    Compression mode : Lossy
    Stream size : 394 MiB (2%)
    Language : Chinese
  Text #4608
    ID : 4608 (0x1200)
    Menu ID : 1 (0x1)
    Format : PGS
    Codec ID : 144
    Language : Chinese
  评论这张
 
阅读(130)| 评论(0)
推荐 转载

历史上的今天

在LOFTER的更多文章

评论

<#--最新日志,群博日志--> <#--推荐日志--> <#--引用记录--> <#--博主推荐--> <#--随机阅读--> <#--首页推荐--> <#--历史上的今天--> <#--被推荐日志--> <#--上一篇,下一篇--> <#-- 热度 --> <#-- 网易新闻广告 --> <#--右边模块结构--> <#--评论模块结构--> <#--引用模块结构--> <#--博主发起的投票-->
 
 
 
 
 
 
 
 
 
 
 
 
 
 

页脚

网易公司版权所有 ©1997-2017