注册 登录  
 加关注
   显示下一条  |  关闭
温馨提示!由于新浪微博认证机制调整,您的新浪微博帐号绑定已过期,请重新绑定!立即重新绑定新浪微博》  |  关闭

逆风飞翔的鸟

追逐风中散落的默契~

 
 
 

日志

 
 
关于我

曾经迷惑于一份距离 曾经感动于一个传说 …… 在仆仆风中 我伸手 抓住你我的缘分 …… “傻傻”的你 能闻到风中 你我的默契吗?!

网易考拉推荐

【幻想】The.Innocents.1961.无罪的人  

2012-10-24 15:48:20|  分类: 幻想 |  标签: |举报 |字号 订阅

  下载LOFTER 我的照片书  |
【幻想】The.Innocents.1961.无罪的人 - 归鸿 - 逆风飞翔的鸟
◎片  名 The Innocents
◎译  名 无罪的人/无辜的人
◎年  代 1961
◎国  家 美国/英国
◎类  别 恐怖/惊悚
◎语  言 英语
◎IMDB链接  http://www.imdb.com/title/tt0055018
◎片  长 100 Mins
◎导  演 杰克·克莱顿 Jack Clayton
◎主  演 黛博拉·蔻儿 Deborah Kerr  ....Miss Giddens
      迈克尔·雷德格瑞夫 Michael Redgrave  ....The Uncle
      马丁·史蒂芬斯 Martin Stephens  ....Miles
      帕梅拉·富兰克林 Pamela Franklin  ....Flora
      彼得·温贾德 Peter Wyngarde  ....Peter Quint
      Megs Jenkins  ....Mrs. Grose
      Clytie Jessop  ....Miss Jessel
      Isla Cameron  ....Anna
      Eric Woodburn  ....The coachman (uncredited)
      

◎简  介 

  19世纪快要结束的时候,毫无经验的年轻女子吉登斯受人之托,来到位于布莱乡下的庄园里,担任一对孤儿的家庭教师。这是一对表面上非常可爱的兄妹俩,哥哥叫迈尔斯,妹妹叫弗洛拉。谁知,在他俩看似天真、快乐的外表之下,竟然掩藏着一个不可告人的秘密……吉登斯小姐的到来,打破了庄园原先平静的生活。她隐隐意识到,这幢房子可能被施了魔咒,孩子们都被鬼魂附了体。格罗斯太太向她透露,这一切诡秘的事情都和已故的前家庭教师杰茜尔以及总管彼得·昆特有牵连。况且,吉登斯本人也不止一次地看见过这两个死鬼在大白天里显灵。于是,她不顾一切地要将孩子们从魔鬼的掌控中救出来!庄园能否恢复往日的静谧呢?

◎简    评

“有些人看到其它人看不到的东西,谁可去判断那是真实还是幻觉?”

一部哥特式的心理悬念片,故事情节紧张,充满了凶兆、阴谋、暴力、恐怖、超自然力的因素。偌大的庄园,一再出现的幽魂折磨着年轻的女教师,使她生活在无穷无尽的梦境和幻觉之中。女主角由美国好莱坞著名女影星黛博拉·寇儿扮演,她的代表作品有:《所罗门宝藏》、《暴君焚城录》、《国王与我》、《乱世忠魂》等。本片中,她通过体态及面部表情的变化,展现了极为精湛的演技。44年前的黑白画质在今天看来,依然层次感分明,明暗对比强烈。

◎一句话评论

Apparitions? Evils? Corruptions?

A strange new experience in shock.



  General #1
    ID : 1 (0x1)
    Complete name : 00000.m2ts
    Format : BDAV
    Format/Info : Blu-ray Video
    File size : 23.8 GiB
    Duration : 1h 39mn
    Overall bit rate mode : Variable
    Overall bit rate : 34.1 Mbps
    Maximum Overall bit rate : 35.5 Mbps
  Video #4113
    ID : 4113 (0x1011)
    Menu ID : 1 (0x1)
    Format : AVC
    Format/Info : Advanced Video Codec
    Format profile : High@L4.1
    Format settings, CABAC : Yes
    Format settings, ReFrames : 3 frames
    Format settings, GOP : M=3, N=12
    Codec ID : 27
    Duration : 1h 39mn
    Bit rate mode : Variable
    Bit rate : 30.2 Mbps
    Maximum bit rate : 35.0 Mbps
    Width : 1 920 pixels
    Height : 1 080 pixels
    Display aspect ratio : 16:9
    Frame rate : 24.000 fps
    Standard : NTSC
    Color space : YUV
    Chroma subsampling : 4:2:0
    Bit depth : 8 bits
    Scan type : Progressive
    Bits/(Pixel*Frame) : 0.607
    Stream size : 21.1 GiB (89%)
    Color primaries : BT.709
    Transfer characteristics : BT.709
    Matrix coefficients : BT.709
  Audio #4352
    ID : 4352 (0x1100)
    Menu ID : 1 (0x1)
    Format : PCM
    Format settings, Endianness : Big
    Format settings, Sign : Signed
    Muxing mode : Blu-ray
    Codec ID : 128
    Duration : 1h 39mn
    Bit rate mode : Constant
    Bit rate : 2 304 Kbps
    Channel(s) : 2 channels
    Channel positions : Front: L R
    Sampling rate : 48.0 KHz
    Bit depth : 24 bits
    Stream size : 1.61 GiB (7%)
    Language : English
  Audio #4353
    ID : 4353 (0x1101)
    Menu ID : 1 (0x1)
    Format : AC-3
    Format/Info : Audio Coding 3
    Mode extension : CM (complete main)
    Format settings, Endianness : Big
    Codec ID : 129
    Duration : 1h 39mn
    Bit rate mode : Constant
    Bit rate : 192 Kbps
    Channel(s) : 2 channels
    Channel positions : Front: L R
    Sampling rate : 48.0 KHz
    Bit depth : 16 bits
    Compression mode : Lossy
    Stream size : 137 MiB (1%)
    Language : English
  Text #4608
    ID : 4608 (0x1200)
    Menu ID : 1 (0x1)
    Format : PGS
    Codec ID : 144
    Delay relative to video : 625ms
    Language : Chinese
  Text #4609
    ID : 4609 (0x1201)
    Menu ID : 1 (0x1)
    Format : PGS
    Codec ID : 144
    Delay relative to video : 625ms
    Language : Chinese
  Text #4610
    ID : 4610 (0x1202)
    Menu ID : 1 (0x1)
    Format : PGS
    Codec ID : 144
    Language : German
  Text #4611
    ID : 4611 (0x1203)
    Menu ID : 1 (0x1)
    Format : PGS
    Codec ID : 144
    Delay relative to video : 625ms
    Language : English
  Text #4612
    ID : 4612 (0x1204)
    Menu ID : 1 (0x1)
    Format : PGS
    Codec ID : 144
    Delay relative to video : 2s 292ms
    Language : English
  评论这张
 
阅读(174)| 评论(0)
推荐 转载

历史上的今天

在LOFTER的更多文章

评论

<#--最新日志,群博日志--> <#--推荐日志--> <#--引用记录--> <#--博主推荐--> <#--随机阅读--> <#--首页推荐--> <#--历史上的今天--> <#--被推荐日志--> <#--上一篇,下一篇--> <#-- 热度 --> <#-- 网易新闻广告 --> <#--右边模块结构--> <#--评论模块结构--> <#--引用模块结构--> <#--博主发起的投票-->
 
 
 
 
 
 
 
 
 
 
 
 
 
 

页脚

网易公司版权所有 ©1997-2017