注册 登录  
 加关注
   显示下一条  |  关闭
温馨提示!由于新浪微博认证机制调整,您的新浪微博帐号绑定已过期,请重新绑定!立即重新绑定新浪微博》  |  关闭

逆风飞翔的鸟

追逐风中散落的默契~

 
 
 

日志

 
 
关于我

曾经迷惑于一份距离 曾经感动于一个传说 …… 在仆仆风中 我伸手 抓住你我的缘分 …… “傻傻”的你 能闻到风中 你我的默契吗?!

网易考拉推荐

【幻想】The.Core.2003.地心浩劫  

2012-10-24 15:46:01|  分类: 幻想 |  标签: |举报 |字号 订阅

  下载LOFTER 我的照片书  |
【幻想】The.Core.2003.地心浩劫 - 归鸿 - 逆风飞翔的鸟
◎译   名 地心抢险记/地心末日/地心浩劫/地心毁灭
◎片   名 The Core
◎年   代 2003
◎国   家 英国/美国
◎类   别 动作/冒险/科幻/惊悚
◎IMDB 链接 http://www.imdb.com/title/tt0298814/
◎语   言 英语
◎字   幕 中文
◎片   长 135 mins
◎导   演 乔恩·阿米尔 Jon Amiel
◎主   演 艾伦·艾克哈特 Aaron Eckhart  ....Dr. Josh Keyes
       希拉里·斯万克 Hilary Swank  ....Maj. Rebecca Childs
       布鲁斯·格林伍德 Bruce Greenwood  ....Cmdr. Robert Iverson
       阿尔法·沃德 Alfre Woodard  ....Dr. Talma Stickley
       史坦利·图齐 Stanley Tucci  ....Dr. Conrad Zimsky
       戴尔里·林多 Delroy Lindo  ....Dr. Ed 'Braz' Brazzleton
       DJ·考尔斯 DJ Qualls  ....Taz 'Rat' Finch
       Christopher Shyer  ....Dave Perry
       Ray Galletti  ....Paul
       Eileen Pedde  ....Lynne
       Rekha Sharma  ....Danni (as Rékha Sharma)
       Tom Scholte  ....Acker
       格伦·莫肖尔 Glenn Morshower  ....FBI Agent
       Anthony Harrison  ....FBI Agent
       切基·卡尤 Tchéky Karyo  ....Dr. Serge Leveque
       理查·詹金斯 Richard Jenkins  ....Gen. Thomas Purcell
       Bart Anderson  ....Dad
       Nicole Leroux  ....Mom
       Justin Callan  ....Little Boy
       Chris Humphreys  ....GBTV Reporter - Trafalgar Square
       Dion Johnstone  ....Flight Engineer Timmins
       Fred Ewanuick  ....Endeavor Flight Engineer (as Fred Ewanvick)
       Hrothgar Mathews  ....Chief Engineer Mission Control
       Shawn Green  ....Himself
       Ming-Tzong Hong  ....Scientist
       Jennifer Spence  ....Zimsky's Assistant
       Michael St. John Smith  ....Pentagon General
       John Shaw  ....FBI Agent - Rat's Apartment
       Nickolas Baric  ....Security Policeman - Tribunal
       Fred Keating  ....Court Marshall Presiding Officer
       Rosa Di Brigida  ....Rome Café Patron
       Roberto Roberto  ....Rome Café Patron
       Ermanno De Biagi  ....Rome Café Patron
       Marcello Laurentis  ....Rome Café Patron
       Greg Bennett  ....Technician - Virgil Base
       Matt Winston  ....Luke Barry
       Claire Riley  ....News Anchor
       Marke Driesschen  ....News Anchor
       Laurie Murdoch  ....Project Destiny Engineer
       Costa Spanos  ....Project Destiny Engineer
       Monique Martel  ....Paris Café Lady
       Lenie Scoffié  ....Paris Café Lady
       Nathaniel DeVeaux  ....U.S.S. Constellation Captain
       Robert Manitopyes  ....U.S.S. Constellation Screen Ops
       Alonso Oyarzun  ....Security Policeman
       Alejandro Abellan  ....U.S.S. Soldier (uncredited)
       Vanna Bonta  ....Journalist (voice) (uncredited)
       Jeffrey Gold  ....Engineer (uncredited)
       Angelica Hayden  ....Coffeehouse Patron (uncredited)
       Rick Kain  ....Chief Petty Officer (uncredited)
       Robert Paul Lewis  ....Beach-goer (uncredited)
       Pamela Martin  ....News Anchor (uncredited)
       Alec Medlock  ....(voice) (uncredited)


◎简   介

  某天,世界各地接连出现奇怪现象:安装心脏起搏器的病人突然暴亡、鸽子迷失方向四处乱撞、金门大桥断裂、罗马竞技场遭到密集雷电袭击……一时间,人类陷入前所未有的恐慌,似乎恐怖的世界末日就在眼前。各国政府及军队紧急动员,急切找到这一连串灾难发生的原因。

  在这关键时刻,地质物理学家乔许·凯斯(艾伦·艾克哈特 Aaron Eckhart 饰)探明真相,原来地核因某种未知的原因停止转动,导致磁场消失。为了拯救人类和地球,乔许以及蕾贝卡·柴德(希拉里·斯万克 Hilary Swank 饰)、罗伯特·艾维森(布鲁斯·格林伍德 Bruce Greenwood 饰)等专家组成一支救援小组,共同前往地球中心实行艰巨而充满危险的拯救任务。人类的命运命悬一线……



  General #1
    ID : 1 (0x1)
    Complete name : 00000.m2ts
    Format : BDAV
    Format/Info : Blu-ray Video
    File size : 33.6 GiB
    Duration : 2h 14mn
    Overall bit rate mode : Variable
    Overall bit rate : 35.6 Mbps
    Maximum Overall bit rate : 35.5 Mbps
  Video #4113
    ID : 4113 (0x1011)
    Menu ID : 1 (0x1)
    Format : AVC
    Format/Info : Advanced Video Codec
    Format profile : High@L4.1
    Format settings, CABAC : Yes
    Format settings, ReFrames : 4 frames
    Codec ID : 27
    Duration : 2h 14mn
    Bit rate mode : Variable
    Bit rate : 32.1 Mbps
    Maximum bit rate : 38.0 Mbps
    Width : 1 920 pixels
    Height : 1 080 pixels
    Display aspect ratio : 16:9
    Frame rate : 23.976 fps
    Color space : YUV
    Chroma subsampling : 4:2:0
    Bit depth : 8 bits
    Scan type : Progressive
    Bits/(Pixel*Frame) : 0.647
    Stream size : 30.3 GiB (90%)
  Audio #4352
    ID : 4352 (0x1100)
    Menu ID : 1 (0x1)
    Format : DTS
    Format/Info : Digital Theater Systems
    Format profile : MA / Core
    Muxing mode : Stream extension
    Codec ID : 134
    Duration : 2h 14mn
    Bit rate mode : Variable
    Bit rate : 1 576 Kbps / 1 510 Kbps
    Channel(s) : 6 channels
    Channel positions : Front: L C R, Side: L R, LFE
    Sampling rate : 48.0 KHz
    Bit depth : 24 bits
    Compression mode : Lossless / Lossy
    Language : English
  Audio #4353
    ID : 4353 (0x1101)
    Menu ID : 1 (0x1)
    Format : AC-3
    Format/Info : Audio Coding 3
    Mode extension : CM (complete main)
    Format settings, Endianness : Big
    Codec ID : 129
    Duration : 2h 14mn
    Bit rate mode : Constant
    Bit rate : 448 Kbps
    Channel(s) : 6 channels
    Channel positions : Front: L C R, Side: L R, LFE
    Sampling rate : 48.0 KHz
    Bit depth : 16 bits
    Compression mode : Lossy
    Stream size : 432 MiB (1%)
    Language : Chinese
  Text #4608
    ID : 4608 (0x1200)
    Menu ID : 1 (0x1)
    Format : PGS
    Codec ID : 144
    Language : Chinese
  Text #4609
    ID : 4609 (0x1201)
    Menu ID : 1 (0x1)
    Format : PGS
    Codec ID : 144
    Language : Chinese
  Text #4610
    ID : 4610 (0x1202)
    Menu ID : 1 (0x1)
    Format : PGS
    Codec ID : 144
    Language : English
  Text #4611
    ID : 4611 (0x1203)
    Menu ID : 1 (0x1)
    Format : PGS
    Codec ID : 144
    Language : English
  Text #4612
    ID : 4612 (0x1204)
    Menu ID : 1 (0x1)
    Format : PGS
    Codec ID : 144
    Language : Danish
  Text #4613
    ID : 4613 (0x1205)
    Menu ID : 1 (0x1)
    Format : PGS
    Codec ID : 144
    Language : Spanish
  Text #4614
    ID : 4614 (0x1206)
    Menu ID : 1 (0x1)
    Format : PGS
    Codec ID : 144
    Language : German
  Text #4615
    ID : 4615 (0x1207)
    Menu ID : 1 (0x1)
    Format : PGS
    Codec ID : 144
    Language : French
  Text #4616
    ID : 4616 (0x1208)
    Menu ID : 1 (0x1)
    Format : PGS
    Codec ID : 144
    Language : Spanish
  Text #4617
    ID : 4617 (0x1209)
    Menu ID : 1 (0x1)
    Format : PGS
    Codec ID : 144
    Language : French
  Text #4618
    ID : 4618 (0x120A)
    Menu ID : 1 (0x1)
    Format : PGS
    Codec ID : 144
    Language : Dutch
  Text #4619
    ID : 4619 (0x120B)
    Menu ID : 1 (0x1)
    Format : PGS
    Codec ID : 144
    Language : Norwegian
  Text #4620
    ID : 4620 (0x120C)
    Menu ID : 1 (0x1)
    Format : PGS
    Codec ID : 144
    Language : Finnish
  Text #4621
    ID : 4621 (0x120D)
    Menu ID : 1 (0x1)
    Format : PGS
    Codec ID : 144
    Language : Swedish
  Text #4622
    ID : 4622 (0x120E)
    Menu ID : 1 (0x1)
    Format : PGS
    Codec ID : 144
    Language : German
  评论这张
 
阅读(182)| 评论(0)
推荐 转载

历史上的今天

在LOFTER的更多文章

评论

<#--最新日志,群博日志--> <#--推荐日志--> <#--引用记录--> <#--博主推荐--> <#--随机阅读--> <#--首页推荐--> <#--历史上的今天--> <#--被推荐日志--> <#--上一篇,下一篇--> <#-- 热度 --> <#-- 网易新闻广告 --> <#--右边模块结构--> <#--评论模块结构--> <#--引用模块结构--> <#--博主发起的投票-->
 
 
 
 
 
 
 
 
 
 
 
 
 
 

页脚

网易公司版权所有 ©1997-2017