注册 登录  
 加关注
   显示下一条  |  关闭
温馨提示!由于新浪微博认证机制调整,您的新浪微博帐号绑定已过期,请重新绑定!立即重新绑定新浪微博》  |  关闭

逆风飞翔的鸟

追逐风中散落的默契~

 
 
 

日志

 
 
关于我

曾经迷惑于一份距离 曾经感动于一个传说 …… 在仆仆风中 我伸手 抓住你我的缘分 …… “傻傻”的你 能闻到风中 你我的默契吗?!

网易考拉推荐

【动画】Saint.Seiya.The.Movie.1987~2004.圣斗士星矢剧场版  

2012-10-20 08:26:01|  分类: 动画 |  标签: |举报 |字号 订阅

  下载LOFTER 我的照片书  |
【动画】Saint.Seiya.The.Movie.1987~2004.圣斗士星矢剧场版 - 归鸿 - 逆风飞翔的鸟
◎译  名 圣斗士星矢剧场版1 : 邪神爱丽丝/圣斗士星矢剧场版1:伊里逆司的再生 | 邪神爱丽丝 | 圣斗士星矢
◎原  名  聖闘士星矢 邪神エリス
            Saint Seiya Gekij?ban
◎片  名 Saint Seiya, Jashin Eris
◎年  代 1987    
◎国  家 日本
◎类  别 动画/冒险/奇幻
◎语  言 国日双语
◎字  幕 中文
◎IMDB链接  http://www.imdb.com/title/tt0323869/
◎片  长 45m:46s
◎导  演 森下孝三
◎主  演 古谷彻 T?ru Furuya  ....Seiya (voice)
            铃置洋孝 Hirotaka Suzuoki  ....Shiryu (Dragon) (voice)
            桥本晃一 K?ichi Hashimoto  ....Hyoga (Cygnus) (voice)
            堀川亮 Ry? Horikawa  ....Shun (Andromeda) (voice)
            堀秀行 Hideyuki Hori  ....Ikki (Phoenix) (voice)
            潘惠子 Keiko Han  ....Sayori Kido (Athena) (voice)
            藤田淑子 Toshiko Fujita  ....Eris (voice)
            三矢雄二 Y?ji Mitsuya  ....Orpheus (voice)
            水岛裕 Y? Mizushima  ....Jaguar (voice)
            中尾隆圣 Ry?sei Nakao  ....Christ (voice)
            难波圭一 Keiichi Nanba  ....Jan (voice)
            柴田由美子 Yumiko Shibata  ....Mimiko (voice)
            田中秀幸 Hideyuki Tanaka  ....Narration (voice)
            冬马由美 Yumi T?ma  ....Akira (voice)
            上村典子 Noriko Uemura  ....Makoto (voice)
            柳泽三千代 Michiyo Yanagisawa


◎简  介

    一颗流星划过东京夜空,随它一同到来的还有希腊神话传说中的黄金苹果。善良的孤儿院女老师绘梨衣与孩子们过着平静的生活,但是她受到黄金苹果的召唤,化身为纠纷女神艾莉丝。为了实现毁灭世界的目的,她绑架了女神雅典娜,并用金苹果将其捆住。随同纠纷女神一同复活的还有矢座魔矢、竖琴座奥菲斯、南十字星古拉特、神盾座阿恩、奥利安座渣加等五位亡灵圣斗士。正享受和平生活的星矢、紫龙、瞬和冰河收到艾莉丝送来的挑战书,他们重新穿上圣衣前往女神被困所在。到达圣域的星矢众人遭遇亡灵五人组,随即陷入艰苦鏖战。女神危在旦夕……

    本片为动画片《圣斗士星矢》第一部剧场版


DISC INFO:

Disc Title:     Disk1
Disc Size:      33,488,586,113 bytes
Protection:     AACS
BD-Java:        No
BDInfo:         0.5.4

PLAYLIST REPORT:

Name:                   00001.MPLS
Length:                 0:45:46 (h:m:s)
Size:                   16,285,581,312 bytes
Total Bitrate:          47.43 Mbps

VIDEO:

Codec                   Bitrate             Description    
-----                   -------             -----------    
MPEG-4 AVC Video        38005 kbps          1080p / 23.976 fps / 16:9 / High Profile 4.1

AUDIO:

Codec                           Language        Bitrate         Description    
-----                           --------        -------         -----------    
Dolby TrueHD Audio              Japanese        3465 kbps       5.1 / 48 kHz / 3465 kbps / 24-bit (AC3 Embedded: 5.1 / 48 kHz / 640 kbps / DN -4dB)
LPCM Audio                      Japanese        1536 kbps       2.0 / 48 kHz / 1536 kbps / 16-bit
Dolby Digital Audio             Chinese         320 kbps        2.0 / 48 kHz / 320 kbps

SUBTITLES:

Codec                           Language        Bitrate         Description    
-----                           --------        -------         -----------    
Presentation Graphics           Chinese         27.691 kbps                    

FILES:

Name            Time In         Length          Size            Total Bitrate  
----            -------         ------          ----            -------------  
00001.M2TS      0:00:00.000     0:45:46.660     16,285,581,312  47,434          



◎译  名 圣斗士星矢剧场版2:神与神的激战/ 圣斗士星矢:众神之战
◎原  名  聖闘士星矢 神々の熱き戦い            
◎片  名 Saint Seiya: Kamigami no atsuki tatakai
◎年  代 1988
◎国  家 日本
◎类  别 动画/冒险/奇幻
◎语  言 国日双语
◎字  幕 中文
◎IMDB链接  http://www.imdb.com/title/tt0322918/
◎片  长 45m:54s
◎导  演 山内重保   Shigeyasu Yamauchi
◎主  演 古谷彻 T?ru Furuya  ....Seiya (voice)
            铃置洋孝 Hirotaka Suzuoki  ....Shiryu (Dragon) (voice)
            桥本晃一 K?ichi Hashimoto  ....Hyoga (Cygnus) (voice)
            堀川亮 Ry? Horikawa  ....Shun (Andromeda) (voice)
            堀秀行 Hideyuki Hori  ....Ikki (Phoenix) (voice)
            潘惠子 Keiko Han  ....Sayori Kido (Athena) (voice)
            乡里大辅 Daisuke G?ri  ....Man (voice)
            家弓家正 Iemasa Kayumi  ....Dolbal (voice)
            水岛裕 Y? Mizushima  ....Loki (voice)
            村山明 Akira Murayama  ....Ul (voice)
            难波圭一 Keiichi Nanba  ....Frey (voice)
            山野智子 Satoko Yamano  ....Freya


◎简  介

    遥远的东西伯利亚,北风呼啸,暴雪横飞,这个冬季变得格外漫长,不祥的气息在空气中肆意弥漫。正在此地修炼的冰河,偶然救助一个被人追杀的男子。从他的口中,冰河得知北欧的神之大陆发生巨大变故,神与神的战争一触即发。在此之后,冰河神秘失踪,纱织小姐带领星矢等人拜访了神之大陆的教主多路巴,然而对方顾左右而言它,神域之行一无所获。多路巴阴险狡诈,麾下神斗士野心勃勃,神之大陆势要与圣域一较高下。纱织陷入教主圈套,被困在奥汀之盾中。为了营救女神,拯救大地,女神的圣斗士和奥汀的神斗士展开了殊死搏斗……


DISC INFO:

Disc Title:     Disk1
Disc Size:      33,488,586,113 bytes
Protection:     AACS
BD-Java:        No
BDInfo:         0.5.4

PLAYLIST REPORT:

Name:                   00002.MPLS
Length:                 0:45:54 (h:m:s)
Size:                   16,338,794,496 bytes
Total Bitrate:          47.45 Mbps

VIDEO:

Codec                   Bitrate             Description    
-----                   -------             -----------    
MPEG-4 AVC Video        37982 kbps          1080p / 23.976 fps / 16:9 / High Profile 4.1

AUDIO:

Codec                           Language        Bitrate         Description    
-----                           --------        -------         -----------    
Dolby TrueHD Audio              Japanese        3502 kbps       5.1 / 48 kHz / 3502 kbps / 24-bit (AC3 Embedded: 5.1 / 48 kHz / 640 kbps / DN -4dB)
LPCM Audio                      Japanese        1536 kbps       2.0 / 48 kHz / 1536 kbps / 16-bit
Dolby Digital Audio             Chinese         320 kbps        2.0 / 48 kHz / 320 kbps

SUBTITLES:

Codec                           Language        Bitrate         Description    
-----                           --------        -------         -----------    
Presentation Graphics           Chinese         21.389 kbps                    

FILES:

Name            Time In         Length          Size            Total Bitrate  
----            -------         ------          ----            -------------  
00002.M2TS      0:00:00.000     0:45:54.543     16,338,794,496  47,453    




◎译  名 圣斗士星矢剧场版3 : 真红少年传说
◎原  名  聖闘士星矢 真紅の少年伝説            
◎片  名 Shinku.no.shonen.densetsu
◎年  代 1988
◎国  家 日本
◎类  别 动画/冒险/奇幻
◎语  言 国日双语
◎字  幕 中文
◎IMDB链接  http://www.imdb.com/title/tt0326143
◎片  长 1h:14m:46s
◎导  演 山内重保
◎主  演 古谷澈
            铃置洋孝
            堀秀行
            堀 川亮
            桥本晃一
            潘惠子


◎简  介
 
    经过了数千年,太阳神阿波罗再次复活,他带领着他的神斗士以及用神力使在十二宫中死去而复活的黄金圣斗士来到了陆地。他决心要发动大洪水,重新创造一个属于神的世界。他主动邀请雅典娜一起统治新的世界。沙织假装同意,但是伺机暗杀阿波罗,未果,反而被杀。修罗和卡妙首先发难,却被三名神斗士围攻,不敌而亡。

    星矢知道雅典娜已死,于是,来太阳神殿找阿波罗算账,途中遇到了紫龙、冰河、瞬和一辉。终于在黄金圣斗士的帮助下,五人来到了阿波罗神殿,星矢穿上人马座黄金圣衣,而紫龙及冰河也分别穿上他们师父的天秤座及水瓶座黄金圣衣。但在阿波罗的攻击下,只有矢避开了。星矢虽然不能伤到阿波罗,但却以小宇宙的力量救回了雅典娜。星矢重新振作,发挥超越神的力量,一箭射倒了阿波罗。这颗巨大的太阳,最终也落下去了。


DISC INFO:

Disc Title:     Disk2
Disc Size:      41,641,450,861 bytes
Protection:     AACS
BD-Java:        No
BDInfo:         0.5.4

PLAYLIST REPORT:

Name:                   00001.MPLS
Length:                 1:14:46 (h:m:s)
Size:                   24,197,173,248 bytes
Total Bitrate:          43.15 Mbps

VIDEO:

Codec                   Bitrate             Description    
-----                   -------             -----------    
MPEG-4 AVC Video        34966 kbps          1080p / 23.976 fps / 16:9 / High Profile 4.1

AUDIO:

Codec                           Language        Bitrate         Description    
-----                           --------        -------         -----------    
Dolby TrueHD Audio              Japanese        2342 kbps       5.1 / 48 kHz / 2342 kbps / 16-bit (AC3 Embedded: 5.1 / 48 kHz / 640 kbps / DN -4dB)
LPCM Audio                      Japanese        1536 kbps       2.0 / 48 kHz / 1536 kbps / 16-bit
Dolby Digital Audio             Chinese         320 kbps        2.0 / 48 kHz / 320 kbps

SUBTITLES:

Codec                           Language        Bitrate         Description    
-----                           --------        -------         -----------    
Presentation Graphics           Chinese         34.346 kbps                    

FILES:

Name            Time In         Length          Size            Total Bitrate  
----            -------         ------          ----            -------------  
00001.M2TS      0:00:00.000     1:14:46.648     24,197,173,248  43,145    



◎译  名 圣斗士星矢剧场版4: 最终圣战的战士们
◎片  名 Saint.Seiya.Movie.4.Saishuseisen.no.senshitachi
◎年  代 1989
◎国  家 日本
◎类  别 动画/冒险/奇幻
◎语  言 国日双语
◎字  幕 中文
◎IMDB链接  http://www.imdb.com/title/tt0326101/
◎片  长 44m:53s
◎导  演 Masayuki Akehi
◎主  演 古谷彻 T?ru Furuya  ....Seiya (voice)
            铃置洋孝 Hirotaka Suzuoki  ....Shiryu (Dragon) (voice)
            桥本晃一 K?ichi Hashimoto  ....Hyoga (Cygnus) (voice)
            堀川亮 Ry? Horikawa  ....Shun (Andromeda) (voice)
            堀秀行 Hideyuki Hori  ....Ikki (Phoenix) (voice)
            潘惠子 Keiko Han  ....Sayori Kido (Athena) (voice)
            桥本晃一


◎简  介

    不祥之夜,四道邪恶光芒侵入圣域,以迅雷不及掩耳的速度击倒多名黄金圣斗士。来者乃圣魔天使,是堕落天使路西法的手下。神话时代,路西法试图凌驾众神之上,最终被打入魔界。他怀着恐怖罪恶的念头复活,凭借堕入魔界的波塞冬、艾丽丝、阿波罗小宇宙的支持,路西法在世界各地掀起连番灾难,人类命运危在旦夕。为了拯救人类,纱织小姐情愿献出圣血。面对实力强大的圣魔天使,星矢等人无力可施,只能眼睁睁地看着纱织被路西法带走。为了救回女神,青铜圣斗士们携手前往伏魔店,与邪恶而强大的路西法及圣魔天使展开对决……

  本片为《圣斗士星矢》的OVA作品


DISC INFO:

Disc Title:     Disk2
Disc Size:      41,641,450,861 bytes
Protection:     AACS
BD-Java:        No
BDInfo:         0.5.4

PLAYLIST REPORT:

Name:                   00002.MPLS
Length:                 0:44:53 (h:m:s)
Size:                   14,593,019,904 bytes
Total Bitrate:          43.34 Mbps

VIDEO:

Codec                   Bitrate             Description    
-----                   -------             -----------    
MPEG-4 AVC Video        35002 kbps          1080p / 23.976 fps / 16:9 / High Profile 4.1

AUDIO:

Codec                           Language        Bitrate         Description    
-----                           --------        -------         -----------    
Dolby TrueHD Audio              Japanese        2629 kbps       5.1 / 48 kHz / 2629 kbps / 16-bit (AC3 Embedded: 5.1 / 48 kHz / 640 kbps / DN -4dB)
LPCM Audio                      Japanese        1536 kbps       2.0 / 48 kHz / 1536 kbps / 16-bit
Dolby Digital Audio             Chinese         320 kbps        2.0 / 48 kHz / 320 kbps

SUBTITLES:

Codec                           Language        Bitrate         Description    
-----                           --------        -------         -----------    
Presentation Graphics           Chinese         26.030 kbps                    

FILES:

Name            Time In         Length          Size            Total Bitrate  
----            -------         ------          ----            -------------  
00002.M2TS      0:00:00.000     0:44:53.690     14,593,019,904  43,340          
   


◎译  名 圣斗士星矢剧场版5:天界篇序奏
◎片  名 Saint Seiya: The Heaven Chapter - Overture
◎别  名  Saint Seiya: Tenkai-hen jos? - Overture
◎年  代 2004
◎国  家 日本
◎类  别 动画/奇幻
◎语  言 国日双语
◎字  幕 中文
◎IMDB链接  http://www.imdb.com/title/tt0805605/
◎片  长 1h:23m:30s
◎导  演 山内重保   Shigeyasu Yamauchi
◎主  演 古谷彻 T?ru Furuya  ....Seiya (voice)
            铃置洋孝 Hirotaka Suzuoki  ....Shiryu (Dragon) (voice)
            桥本晃一 K?ichi Hashimoto  ....Hyoga (Cygnus) (voice)
            堀川亮 Ry? Horikawa  ....Shun (Andromeda) (voice)
            堀秀行 Hideyuki Hori  ....Ikki (Phoenix) (voice)
            潘惠子 Keiko Han  ....Sayori Kido (Athena) (voice)
            乡里大辅 Daisuke G?ri  ....Man (voice)


◎简  介

    与冥王哈迪斯惨烈战斗终于结束,世界再次回到光明之中。但对于圣斗士来说,却伤亡何其惨重。黄金圣斗士全部阵亡,星矢虽然在最后的决战中侥幸逃生,却落得五感尽失,形同废人。

    然而,这来之不易的和平却无法持续太久,在经历了撒加叛乱、海神波塞冬、冥王哈迪斯等危机之后,另一支邪恶之手也向人类世界伸来。这便是月神阿尔特弥斯。她此番带领神斗士前来,企图将人类消灭。


DISC INFO:

Disc Title:     Disk3
Disc Size:      29,896,534,673 bytes
Protection:     AACS
BD-Java:        No
BDInfo:         0.5.4

PLAYLIST REPORT:

Name:                   00001.MPLS
Length:                 1:23:30 (h:m:s)
Size:                   29,149,544,448 bytes
Total Bitrate:          46.54 Mbps

VIDEO:

Codec                   Bitrate             Description    
-----                   -------             -----------    
MPEG-4 AVC Video        38077 kbps          1080p / 23.976 fps / 16:9 / High Profile 4.1

AUDIO:

Codec                           Language        Bitrate         Description    
-----                           --------        -------         -----------    
Dolby TrueHD Audio              Japanese        2394 kbps       5.1 / 48 kHz / 2394 kbps / 16-bit (AC3 Embedded: 5.1 / 48 kHz / 640 kbps / DN -4dB)
LPCM Audio                      Japanese        1536 kbps       2.0 / 48 kHz / 1536 kbps / 16-bit
Dolby Digital Audio             Chinese         448 kbps        2.0 / 48 kHz / 448 kbps

SUBTITLES:

Codec                           Language        Bitrate         Description    
-----                           --------        -------         -----------    
Presentation Graphics           Chinese         18.378 kbps                    

FILES:

Name            Time In         Length          Size            Total Bitrate  
----            -------         ------          ----            -------------  
00001.M2TS      0:00:00.000     1:23:30.463     29,149,544,448  46,542
  评论这张
 
阅读(231)| 评论(0)
推荐 转载

历史上的今天

在LOFTER的更多文章

评论

<#--最新日志,群博日志--> <#--推荐日志--> <#--引用记录--> <#--博主推荐--> <#--随机阅读--> <#--首页推荐--> <#--历史上的今天--> <#--被推荐日志--> <#--上一篇,下一篇--> <#-- 热度 --> <#-- 网易新闻广告 --> <#--右边模块结构--> <#--评论模块结构--> <#--引用模块结构--> <#--博主发起的投票-->
 
 
 
 
 
 
 
 
 
 
 
 
 
 

页脚

网易公司版权所有 ©1997-2017