注册 登录  
 加关注
查看详情
   显示下一条  |  关闭
温馨提示!由于新浪微博认证机制调整,您的新浪微博帐号绑定已过期,请重新绑定!立即重新绑定新浪微博》  |  关闭

逆风飞翔的鸟

追逐风中散落的默契~

 
 
 

日志

 
 
关于我

曾经迷惑于一份距离 曾经感动于一个传说 …… 在仆仆风中 我伸手 抓住你我的缘分 …… “傻傻”的你 能闻到风中 你我的默契吗?!

【动作】Romeo.Must.Die.2000.致命罗密欧  

2012-09-17 10:03:26|  分类: 动作 |  标签: |举报 |字号 订阅

  下载LOFTER 我的照片书  |
【动作】Romeo.Must.Die.2000.致命罗密欧 - 归鸿 - 逆风飞翔的鸟

◎译  名 致命罗密欧/致命的罗密欧/致命英雄/罗密欧必死
◎片  名 Romeo Must Die
◎年  代 2000
◎国  家 美国
◎类  别 动作/犯罪/惊悚
◎语  言 英语 
◎IMDB链接  http://www.imdb.com/title/tt0165929/
◎片  长 115 Mins
◎导  演 安德列·巴柯维亚 Andrzej Bartkowiak
◎主  演 李连杰 Jet Li  ....Han Sing
       阿丽雅 Aaliyah  ....Trish O‘Day
       王盛德 Russell Wong  ....Kai
       安东尼·安德森 Anthony Anderson  ....Maurice
       马修·哈里逊 Matthew Harrison  ....Dave, Roth‘s Assistant
       张铮 Chang Tseng  ....Victor Ho
       叶芳华 Fran?oise Yip  ....Motorcycle Fighter (as Fran?ois Yip)
       艾赛亚·华盛顿 Isaiah Washington  ....Mac
       DMX  ....Silk
       戴尔里·林多 Delroy Lindo  ....Isaak O‘Day
       D.B. Woodside  ....Colin O‘Day
       亨利·欧 Henry O  ....Ch‘u Sing
       Jonkit Lee  ....Po Sing
       Edoardo Ballerini  ....Vincent Roth
       特瑞·陈 Terry Chen  ....Kung
       
 
◎简  介 
 
  韩星(李连杰饰)曾是一名香港警察,其父楚却是一个美国犯罪集团的首领。为了维护他的黑社会老爸,韩星不仅失去了工作,还被投入监狱。楚的亚裔犯罪家族与势均力敌的伊萨克-奥代(德尔罗伊-林度饰)黑人团伙间爆发了激烈冲突,韩星的兄弟波在这场搏杀中身亡。仇恨之火使韩星不顾一切地越狱来到美国。对于这个全新的世界,他可以凭籍的只是头脑与武功。韩星刚刚登上破败的奥克兰码头便发现伊萨克是一个很难对付的对手。可是,韩星却得到了一份意想不到的理解与帮助,而对方竟是伊萨克漂亮而反叛的女儿特蕾丝(阿丽娅-豪夫顿饰)。和韩星一样,特蕾丝的哥哥也是在黑帮争斗中死去的,而她所要做的却与韩星不同:她不想报仇,只是想在她所关爱的人都死掉之前结束这场恶梦。韩星与特蕾丝决定共同阻止暴力与恐惧在奥克兰的蔓延,但他们却遭到了来自双方家族的层层阻挠与威胁。特蕾丝必须依靠自己的智慧甩掉父亲派来的耳目,而韩星在更多的时候需要运用武功,因为伊萨克的手下总是阻止他与特蕾丝接触,还有一些幕后人物不想让他了解事情的真相。
 
◎一句话评论
 
  In A World Of Vicious Rivalries And Violent Betrayals Only One Thing Is Sure.
 
  The Word On The Street Is...[Romeo Must Die]
 
  In the city ruled by criminals, two families have forgotten their fear. He will make them remember.
 
◎幕后制作
 
  李连杰好莱坞称雄,动作版的“罗密欧与朱丽叶”,亲情、友情、爱情、复仇所交织的争斗,沙翁名剧,光怪陆离……李连杰主演的第一部好莱坞作品。影片颇受黑人喜欢,但远不如李连杰的香港片。恋爱场景被“誉”为影史最“纯洁”的,没有一丝火花。该片女主角阿里雅在2001年一次空难不幸遇难。

 

  General #1
    ID : 1 (0x1)
    Complete name : 00000.m2ts
    Format : BDAV
    Format/Info : Blu-ray Video
    File size : 29.5 GiB
    Duration : 1h 55mn
    Overall bit rate mode : Variable
    Overall bit rate : 36.6 Mbps
    Maximum Overall bit rate : 35.5 Mbps
  Video #4113
    ID : 4113 (0x1011)
    Menu ID : 1 (0x1)
    Format : AVC
    Format/Info : Advanced Video Codec
    Format profile : High@L4.1
    Format settings, CABAC : Yes
    Format settings, ReFrames : 2 frames
    Codec ID : 27
    Duration : 1h 55mn
    Bit rate mode : Variable
    Bit rate : 32.9 Mbps
    Width : 1 920 pixels
    Height : 1 080 pixels
    Display aspect ratio : 16:9
    Frame rate : 23.976 fps
    Color space : YUV
    Chroma subsampling : 4:2:0
    Bit depth : 8 bits
    Scan type : Progressive
    Bits/(Pixel*Frame) : 0.661
    Stream size : 26.4 GiB (90%)
  Audio #4352
    ID : 4352 (0x1100)
    Menu ID : 1 (0x1)
    Format : DTS
    Format/Info : Digital Theater Systems
    Format profile : MA / Core
    Muxing mode : Stream extension
    Codec ID : 134
    Duration : 1h 55mn
    Bit rate mode : Variable
    Bit rate : 1 852 Kbps / 1 510 Kbps
    Channel(s) : 6 channels
    Channel positions : Front: L C R, Side: L R, LFE
    Sampling rate : 48.0 KHz
    Bit depth : 24 bits
    Compression mode : Lossless / Lossy
    Language : English
  Audio #4353
    ID : 4353 (0x1101)
    Menu ID : 1 (0x1)
    Format : AC-3
    Format/Info : Audio Coding 3
    Mode extension : CM (complete main)
    Format settings, Endianness : Big
    Codec ID : 129
    Duration : 1h 55mn
    Bit rate mode : Constant
    Bit rate : 448 Kbps
    Channel(s) : 6 channels
    Channel positions : Front: L C R, Side: L R, LFE
    Sampling rate : 48.0 KHz
    Bit depth : 16 bits
    Compression mode : Lossy
    Stream size : 369 MiB (1%)
    Language : Chinese
  Text #4608
    ID : 4608 (0x1200)
    Menu ID : 1 (0x1)
    Format : PGS
    Codec ID : 144
    Language : Chinese
  Text #4609
    ID : 4609 (0x1201)
    Menu ID : 1 (0x1)
    Format : PGS
    Codec ID : 144
    Language : Chinese
  Text #4610
    ID : 4610 (0x1202)
    Menu ID : 1 (0x1)
    Format : PGS
    Codec ID : 144
    Language : Japanese
  Text #4611
    ID : 4611 (0x1203)
    Menu ID : 1 (0x1)
    Format : PGS
    Codec ID : 144
    Language : English
  Text #4612
    ID : 4612 (0x1204)
    Menu ID : 1 (0x1)
    Format : PGS
    Codec ID : 144
    Language : Japanese
  Text #4613
    ID : 4613 (0x1205)
    Menu ID : 1 (0x1)
    Format : PGS
    Codec ID : 144
    Language : German
  Text #4614
    ID : 4614 (0x1206)
    Menu ID : 1 (0x1)
    Format : PGS
    Codec ID : 144
    Language : Italian
  Text #4615
    ID : 4615 (0x1207)
    Menu ID : 1 (0x1)
    Format : PGS
    Codec ID : 144
    Language : Spanish
  Text #4616
    ID : 4616 (0x1208)
    Menu ID : 1 (0x1)
    Format : PGS
    Codec ID : 144
    Language : Spanish
  Text #4617
    ID : 4617 (0x1209)
    Menu ID : 1 (0x1)
    Format : PGS
    Codec ID : 144
    Language : Danish
  Text #4618
    ID : 4618 (0x120A)
    Menu ID : 1 (0x1)
    Format : PGS
    Codec ID : 144
    Language : Finnish
  Text #4619
    ID : 4619 (0x120B)
    Menu ID : 1 (0x1)
    Format : PGS
    Codec ID : 144
    Language : Norwegian
  Text #4620
    ID : 4620 (0x120C)
    Menu ID : 1 (0x1)
    Format : PGS
    Codec ID : 144
    Language : Swedish
  Text #4621
    ID : 4621 (0x120D)
    Menu ID : 1 (0x1)
    Format : PGS
    Codec ID : 144
    Language : French
  Text #4622
    ID : 4622 (0x120E)
    Menu ID : 1 (0x1)
    Format : PGS
    Codec ID : 144
    Language : German
  Text #4623
    ID : 4623 (0x120F)
    Menu ID : 1 (0x1)
    Format : PGS
    Codec ID : 144
    Language : Italian
  Text #4624
    ID : 4624 (0x1210)
    Menu ID : 1 (0x1)
    Format : PGS
    Codec ID : 144
    Language : Spanish

  评论这张
 
阅读(161)| 评论(0)
推荐 转载

历史上的今天

评论

<#--最新日志,群博日志--> <#--推荐日志--> <#--引用记录--> <#--博主推荐--> <#--随机阅读--> <#--首页推荐--> <#--历史上的今天--> <#--被推荐日志--> <#--上一篇,下一篇--> <#-- 热度 --> <#-- 网易新闻广告 --> <#--右边模块结构--> <#--评论模块结构--> <#--引用模块结构--> <#--博主发起的投票-->
 
 
 
 
 
 
 
 
 
 
 
 
 
 

页脚

网易公司版权所有 ©1997-2018