注册 登录  
 加关注
   显示下一条  |  关闭
温馨提示!由于新浪微博认证机制调整,您的新浪微博帐号绑定已过期,请重新绑定!立即重新绑定新浪微博》  |  关闭

逆风飞翔的鸟

追逐风中散落的默契~

 
 
 

日志

 
 
关于我

曾经迷惑于一份距离 曾经感动于一个传说 …… 在仆仆风中 我伸手 抓住你我的缘分 …… “傻傻”的你 能闻到风中 你我的默契吗?!

网易考拉推荐

【幻想】Automaton.Transfusion.2006.丧尸猎魔  

2012-08-22 16:31:13|  分类: 幻想 |  标签: |举报 |字号 订阅

  下载LOFTER 我的照片书  |
【幻想】Automaton.Transfusion.2006.丧尸猎魔 - 归鸿 - 逆风飞翔的鸟

◎译  名 丧尸猎魔
◎片  名 Automaton Transfusion
◎年  代 2006年
◎国  家 美国
◎类  别 动作/恐怖
◎IMDB链接  http://www.imdb.com/title/tt0469683/
◎语  言 德语
◎片  长 75 Mins
◎导  演 Steven C. Miller
◎主  演 Garrett Jones ... Chris
       Juliet Reeves ... Jackie
       William Howard Bowman ... Scott
       Rowan Bousaid ... Tim
       Ashley Elizabeth Pierce ... Simone
       Kendra Farner ... Melissa
       Joel Hebner ... Lance
       Kevin J. O'Neill ... Dr. Swartz
       John Youmans ... The Bartender
       Larry Miller ... Lee
       Jeff Denton ... Jon
 
 
◎简  介 

    本片相当于《活死人黎明》与《美国倚派》的结合版,虽然预算仅为5万美元,但拍摄效果却丝毫不差。学生查尔斯所在的高校是一所混乱且充满朝气的地方,然而这里却隐藏着一个不为人知的秘密:这里正在进行着生化病毒试验。不过病毒最终泄露,将附近整个城市感染成了食肉丧尸的乐园,查尔斯和他的朋友们毫不知情地来到城市中,遭到了丧尸大军的"盛情款待"。在拼死拼活突出重围奔到学校后发现此地早已沦陷,曾经的同学甚至是挚爱的亲人都已变成吃人不眨眼的丧尸,愤怒的众人决定与怪物们浴血奋战到底,然而此时查尔斯的真正身份暴露,他竟然是……

 

  General #1
    ID : 1 (0x1)
    Complete name : 00000.m2ts
    Format : BDAV
    Format/Info : Blu-ray Video
    File size : 16.9 GiB
    Duration : 1h 15mn
    Overall bit rate : 32.1 Mbps
    Maximum Overall bit rate : 35.5 Mbps
  Video #4113
    ID : 4113 (0x1011)
    Menu ID : 1 (0x1)
    Format : AVC
    Format/Info : Advanced Video Codec
    Format profile : High@L4.1
    Format settings, CABAC : Yes
    Format settings, ReFrames : 3 frames
    Codec ID : 27
    Duration : 1h 15mn
    Bit rate mode : Constant
    Bit rate : 30.0 Mbps
    Width : 1 920 pixels
    Height : 1 080 pixels
    Display aspect ratio : 16:9
    Frame rate : 23.976 fps
    Standard : NTSC
    Color space : YUV
    Chroma subsampling : 4:2:0
    Bit depth : 8 bits
    Scan type : Progressive
    Bits/(Pixel*Frame) : 0.603
    Stream size : 15.8 GiB (94%)
    Color primaries : BT.709
    Transfer characteristics : BT.709
    Matrix coefficients : BT.709
  Audio #4352
    ID : 4352 (0x1100)
    Menu ID : 1 (0x1)
    Format : AC-3
    Format/Info : Audio Coding 3
    Mode extension : CM (complete main)
    Format settings, Endianness : Big
    Codec ID : 129
    Duration : 1h 15mn
    Bit rate mode : Constant
    Bit rate : 640 Kbps
    Channel(s) : 6 channels
    Channel positions : Front: L C R, Side: L R, LFE
    Sampling rate : 48.0 KHz
    Bit depth : 16 bits
    Compression mode : Lossy
    Stream size : 344 MiB (2%)
    Language : English
  Text #4608
    ID : 4608 (0x1200)
    Menu ID : 1 (0x1)
    Format : PGS
    Codec ID : 144
    Language : Chinese
  Text #4609
    ID : 4609 (0x1201)
    Menu ID : 1 (0x1)
    Format : PGS
    Codec ID : 144
    Language : German
  Text #4610
    ID : 4610 (0x1202)
    Menu ID : 1 (0x1)
    Format : PGS
    Codec ID : 144
    Language : German

  评论这张
 
阅读(170)| 评论(0)
推荐 转载

历史上的今天

评论

<#--最新日志,群博日志--> <#--推荐日志--> <#--引用记录--> <#--博主推荐--> <#--随机阅读--> <#--首页推荐--> <#--历史上的今天--> <#--被推荐日志--> <#--上一篇,下一篇--> <#-- 热度 --> <#-- 网易新闻广告 --> <#--右边模块结构--> <#--评论模块结构--> <#--引用模块结构--> <#--博主发起的投票-->
 
 
 
 
 
 
 
 
 
 
 
 
 
 

页脚

网易公司版权所有 ©1997-2017