注册 登录  
 加关注
   显示下一条  |  关闭
温馨提示!由于新浪微博认证机制调整,您的新浪微博帐号绑定已过期,请重新绑定!立即重新绑定新浪微博》  |  关闭

逆风飞翔的鸟

追逐风中散落的默契~

 
 
 

日志

 
 
关于我

曾经迷惑于一份距离 曾经感动于一个传说 …… 在仆仆风中 我伸手 抓住你我的缘分 …… “傻傻”的你 能闻到风中 你我的默契吗?!

网易考拉推荐

【亚洲】The.Silent.Duel.1949.静夜之决斗  

2012-08-21 08:47:09|  分类: 亚洲 |  标签: |举报 |字号 订阅

  下载LOFTER 我的照片书  |
【亚洲】The.Silent.Duel.1949.静夜之决斗 - 归鸿 - 逆风飞翔的鸟

◎译  名 静夜之决斗/平静的决斗/静静的决斗
◎片  名 Shizukanaru ketto(原名)/The Silent Due(英)
◎年  代 1949
◎国  家 日本 
◎类  别 剧情
◎语  言 日语 
◎IMDB链接  http://www.imdb.com/title/tt0041870/
◎片  长 95 Mins
◎导  演 黑泽明 Akira Kurosawa
◎主  演 三船敏郎 Toshiro Mifune  ....Dr. Kyoji Fujisaki
       志村乔 Takashi Shimura  ....Dr. Konosuke Fujisaki
       三条美纪 Miki Sanj?  ....Misao Matsumoto
       植村谦二郎 Kenjiro Uemura  ....Susumu Nakada
       中北千枝子 Chieko Nakakita  ....Takiko Nakada
       千石规子 Noriko Sengoku  ....Apprentice Nurse Rui Minegishi
       宫崎准之助 Jyonosuke Miyazaki  ....Cpl. Horiguchi
       山口勇 Isamu Yamaguchi  ....Patrolman Nosaka
       松本茂 Shigeru Matsumoto  ....Boy with appendicitis
       町田博子 Hiroko Machida  ....Nurse Imai
       高见贯 Kan Takami  ....Laborer
       飞田喜佐雄 Kisao Tobita  ....Boy with typhoid
       宫岛城之 Shigeyuki Miyajima  ....Officer
       伊达正 Tadashi Date  ....Father of boy with appendicitis
       須藤恒子 Etsuko Sudo  ....Mother of boy with appendicitis
       泉静治 Seiji Izumi  ....Policeman
       佐佐木正时 Masateru Sasaki  ....Old Soldier
       宫岛健一 Kenichi Miyajima  ....Dealer
       工藤洋辅 Yosuke Kudo  ....Boy
       池上湧子 Yakuko Ikegami  ....Gaudy Woman
       松村若代 Wakayo Matsumura  ....Student Nurse
       若原初子 Hatsuko Wakahara  ....Mii-chan
       
 
◎简  介 
 
  第二次世界大战期间,日本军医恭二替一名患梅毒的上尉治疗时,不幸也染上了这可怕的疾病,此后便一直活在恶梦及痛苦中。战后,恭二仍然积极行医,但碍于自己的病,一直婉拒与女友美佐成婚,奈何美佐坚决守候,一耗便是六年的青春光阴。恭二父亲不知道儿子的苦衷,亦常埋怨他对美佐不公平,直至儿子道出自己的不幸,两父子才打破多年来的隔膜……
 
◎影  评 
 
    本片用“静夜的决斗”为片名,实则是在展示男主人公恭二医生内心世界的斗争,像在静夜中悄悄地上演。实际,影片的外部动作与以往黑泽明的作品相比,的确稍显薄弱。这就使得影片在某些部分,很拖沓。导演的道德意图十分强烈,他让医生在战时,因为救一个受伤士兵的生命时而染上性病。导演为什么要选择性病呢,这与当时战后人们为逃避失败的现实,过着堕落荒淫的生活有关。当医生从此要瞒着家人和恋人,过上压抑的生活时,影片渐渐慢了下来,因为主人公的内心情境已经被观众了解,但当观众期待它有所发展时,它却直到结尾时,也没有多大的变化,只不过导演安排了医生爆发出来,强烈地表达他内心痛苦感受的一幕,其实这一幕的强度并不比他压在内心,带给观众的震撼更强。因此,导演的道德批判,在这部影片中表现的比其他影片强烈,但影片的艺术高度也因此稍稍降低。它给了观众一个很实的答案,削弱了人类的复杂感受(这在之后的《罗生门》中得到了改变),我相信导演自己也意识到了这一点,因为这世界,怎可能有圣人呢?
 
    看了黑泽明早期的影片,一个最大的感受,就是导演是一个道德感十分强烈的人,他用他的热情和智慧去完成他内心的道德使命。虽然到了20世纪,“零度写作”是现代作者的追求,不给现实强加作者自己的道德判断,但是,在一个荒淫堕落的社会中,每一个艺术家,又怎能没有自己的立场呢?因此,我支持这种道德表达,尤其在现在的中国,人们的价值观模糊,世界变得模棱两可,应该有人能够站出来,震醒昏迷的人们,主导一种主流的道德意识。我相信,许多人都在主动寻找自己的价值,因为人生不仅仅是生存问题,它还关乎精神的存在的意义。

 

  General #0
    ID : 0 (0x0)
    Complete name : The.Silent.Duel.1949.BD.REMUX.h264.1080P.DD20.ts
    Format : MPEG-TS
    File size : 19.5 GiB
    Duration : 1h 34mn
    Overall bit rate mode : Variable
    Overall bit rate : 29.6 Mbps
  Video #4129
    ID : 4129 (0x1021)
    Menu ID : 1 (0x1)
    Format : AVC
    Format/Info : Advanced Video Codec
    Format profile : High@L4.1
    Format settings, CABAC : Yes
    Format settings, ReFrames : 2 frames
    Codec ID : 27
    Duration : 1h 34mn
    Bit rate mode : Variable
    Bit rate : 27.7 Mbps
    Width : 1 920 pixels
    Height : 1 080 pixels
    Display aspect ratio : 16:9
    Frame rate : 29.970 fps
    Color space : YUV
    Chroma subsampling : 4:2:0
    Bit depth : 8 bits
    Scan type : Interlaced
    Scan order : Top Field First
    Bits/(Pixel*Frame) : 0.446
    Stream size : 18.3 GiB (94%)
  Audio #4133
    ID : 4133 (0x1025)
    Menu ID : 1 (0x1)
    Format : AC-3
    Format/Info : Audio Coding 3
    Mode extension : CM (complete main)
    Format settings, Endianness : Big
    Codec ID : 129
    Duration : 1h 34mn
    Bit rate mode : Constant
    Bit rate : 384 Kbps
    Channel(s) : 2 channels
    Channel positions : Front: L R
    Sampling rate : 48.0 KHz
    Bit depth : 16 bits
    Compression mode : Lossy
    Stream size : 260 MiB (1%)
    Language : Japanese

  评论这张
 
阅读(165)| 评论(0)
推荐 转载

历史上的今天

在LOFTER的更多文章

评论

<#--最新日志,群博日志--> <#--推荐日志--> <#--引用记录--> <#--博主推荐--> <#--随机阅读--> <#--首页推荐--> <#--历史上的今天--> <#--被推荐日志--> <#--上一篇,下一篇--> <#-- 热度 --> <#-- 网易新闻广告 --> <#--右边模块结构--> <#--评论模块结构--> <#--引用模块结构--> <#--博主发起的投票-->
 
 
 
 
 
 
 
 
 
 
 
 
 
 

页脚

网易公司版权所有 ©1997-2017