注册 登录  
 加关注
   显示下一条  |  关闭
温馨提示!由于新浪微博认证机制调整,您的新浪微博帐号绑定已过期,请重新绑定!立即重新绑定新浪微博》  |  关闭

逆风飞翔的鸟

追逐风中散落的默契~

 
 
 

日志

 
 
关于我

曾经迷惑于一份距离 曾经感动于一个传说 …… 在仆仆风中 我伸手 抓住你我的缘分 …… “傻傻”的你 能闻到风中 你我的默契吗?!

网易考拉推荐

【亚洲】Super.Cub.2008.超级幼兽  

2012-08-21 08:36:14|  分类: 亚洲 |  标签: |举报 |字号 订阅

  下载LOFTER 我的照片书  |
【亚洲】Super.Cub.2008.超级幼兽 - 归鸿 - 逆风飞翔的鸟

◎译  名 超级幼兽
◎片  名 Super Cub
◎年  代 2008
◎国  家 日本
◎类  别 喜剧
◎语  言 日语
◎字  幕 中文
◎片  长 81 Min
◎导  演 室贺厚 Atsushi Muroga
◎主  演 斋藤庆太 Keita Saito
      长泽奈央 Nao Nagasawa
      Kana Kurashina
      小木茂光 Shigemitsu Ogi
      风间透 Toru Kazama
      Ire Shiozaki
      Motoki Ochiai
      Tomoya Nagai


◎简  介 

    超级幼兽(Super Cub)是本田公司在上世纪中期出品的一款摩托车,它省油耐用、口碑相当好,本田由此一举世界闻名。本片的主人公是一名驾着超级幼兽穿街走巷送外卖的少年。

    浜田武史(斋藤庆太饰)外号“锤子”,是个有名的飞车族。武史的双亲住在海外,他独自一人在日本生活。他不好好上学,一味热衷于惊险刺激的摩托比赛,父母给他的钱都用在了装备爱车上。青梅竹马的女孩美绪(仓科香奈 Kana Kurashina饰)对这样的武史十分生气,但武史照样我行我素。

    这天,武史和势均力敌的对手真治(落合扶树饰)又展开了一场较量。一辆白色的摩托车突然闯了进来——这是女警察丽华(长泽奈央饰)。武史和真治被带到了警察局接受调查,原来经常一起赛车的野次马等人竟是不法分子。

    离开警察局后,武史的逍遥日子随之结束。他住进了父亲的好友即美绪的父亲开的炒面店“木镝屋”,一边自己打工还债一边上学。武史在“木镝屋”的车库里发现了一辆破旧的摩托车——本田超级幼兽。他根据指南手册修好了这辆车。

    这天,店里的老客户公民馆叫了外卖,但因为还有市民中心订单店里安排不出人手,店长只得让武史骑着摩托车送货救急。从此,武史成了外卖派送员,他骑着超级幼兽飞驰在大街小巷中,很快成了这个街区的名人,附近批萨店的派送员都不及他快。丽华所在的十七分署的管区连续发生摩托车偷盗案,她单独进行调查,发现这一事件和真治有关。而武史也卷了进来,为了朋友,他必须驾驶90CC的送货摩托超级幼兽展开一场竞速对决……

 

  General #1
    ID : 1 (0x1)
    Complete name : 00000.m2ts
    Format : BDAV
    Format/Info : Blu-ray Video
    File size : 19.9 GiB
    Duration : 1h 21mn
    Overall bit rate : 34.7 Mbps
    Maximum Overall bit rate : 35.5 Mbps
  Video #4113
    ID : 4113 (0x1011)
    Menu ID : 1 (0x1)
    Format : AVC
    Format/Info : Advanced Video Codec
    Format profile : High@L4.1
    Format settings, CABAC : Yes
    Format settings, ReFrames : 2 frames
    Codec ID : 27
    Duration : 1h 21mn
    Bit rate mode : Constant
    Bit rate : 28.0 Mbps
    Width : 1 920 pixels
    Height : 1 080 pixels
    Display aspect ratio : 16:9
    Frame rate : 23.976 fps
    Standard : Component
    Color space : YUV
    Chroma subsampling : 4:2:0
    Bit depth : 8 bits
    Scan type : Progressive
    Bits/(Pixel*Frame) : 0.563
    Stream size : 16.2 GiB (81%)
  Audio #4352
    ID : 4352 (0x1100)
    Menu ID : 1 (0x1)
    Format : PCM
    Format settings, Endianness : Big
    Format settings, Sign : Signed
    Muxing mode : Blu-ray
    Codec ID : 128
    Duration : 1h 21mn
    Bit rate mode : Constant
    Bit rate : 4 608 Kbps
    Channel(s) : 6 channels
    Channel positions : Front: L C R, Side: L R, LFE
    Sampling rate : 48.0 KHz
    Bit depth : 16 bits
    Delay relative to video : -83ms
    Stream size : 2.64 GiB (13%)
    Language : Japanese
  Audio #4353
    ID : 4353 (0x1101)
    Menu ID : 1 (0x1)
    Format : AC-3
    Format/Info : Audio Coding 3
    Mode extension : CM (complete main)
    Format settings, Endianness : Big
    Codec ID : 129
    Duration : 1h 21mn
    Bit rate mode : Constant
    Bit rate : 448 Kbps
    Channel(s) : 6 channels
    Channel positions : Front: L C R, Side: L R, LFE
    Sampling rate : 48.0 KHz
    Bit depth : 16 bits
    Compression mode : Lossy
    Delay relative to video : -83ms
    Stream size : 263 MiB (1%)
    Language : Japanese
  Text #4608
    ID : 4608 (0x1200)
    Menu ID : 1 (0x1)
    Format : PGS
    Codec ID : 144
    Language : Chinese
  Text #4609
    ID : 4609 (0x1201)
    Menu ID : 1 (0x1)
    Format : PGS
    Codec ID : 144
    Language : Chinese
  Text #4610
    ID : 4610 (0x1202)
    Menu ID : 1 (0x1)
    Format : PGS
    Codec ID : 144
    Language : English

  评论这张
 
阅读(114)| 评论(0)
推荐 转载

历史上的今天

在LOFTER的更多文章

评论

<#--最新日志,群博日志--> <#--推荐日志--> <#--引用记录--> <#--博主推荐--> <#--随机阅读--> <#--首页推荐--> <#--历史上的今天--> <#--被推荐日志--> <#--上一篇,下一篇--> <#-- 热度 --> <#-- 网易新闻广告 --> <#--右边模块结构--> <#--评论模块结构--> <#--引用模块结构--> <#--博主发起的投票-->
 
 
 
 
 
 
 
 
 
 
 
 
 
 

页脚

网易公司版权所有 ©1997-2017