注册 登录  
 加关注
   显示下一条  |  关闭
温馨提示!由于新浪微博认证机制调整,您的新浪微博帐号绑定已过期,请重新绑定!立即重新绑定新浪微博》  |  关闭

逆风飞翔的鸟

追逐风中散落的默契~

 
 
 

日志

 
 
关于我

曾经迷惑于一份距离 曾经感动于一个传说 …… 在仆仆风中 我伸手 抓住你我的缘分 …… “傻傻”的你 能闻到风中 你我的默契吗?!

网易考拉推荐

【亚洲】Queens.of.Langkasuka.2008.狼牙脩皇后  

2012-08-21 14:38:04|  分类: 亚洲 |  标签: |举报 |字号 订阅

  下载LOFTER 我的照片书  |
【亚洲】Queens.of.Langkasuka.2008.狼牙脩皇后 - 归鸿 - 逆风飞翔的鸟

◎译  名 狼牙脩皇后/海上的女皇/兰卡苏卡的女王
◎片  名 Queens of Langkasuka
◎年  代 2008
◎国  家 泰国
◎类  别 冒险/奇幻/历史
◎语  言 泰语
◎字  幕 中文
◎IMDB链接  http://www.imdb.com/title/tt1262945/
◎片  长 114 mins
◎导  演 朗斯·尼美毕达 Nonzee Nimibutr
◎主  演 索拉朋·切特里 Sorapong Chatree
      阿南达·爱华灵咸 Ananda Everingham ....Paree
      Winai Kraibutr
      Chartchai Ngamsan
      Jakrit Panichpatikam ....Limkiem
      杰西达邦·福尔迪 Tik Jesdaporn Pholdee ....Prince Pahung
      Attaporn Teemakorn


◎简  介

  400年前,狼牙脩国度由于国王Rayabahadur Sah遭到刺杀而失陷。皇室成员别无选择,只能将皇冠授予长女Hijau公主(扎鲁尼?苏萨瓦饰演),让她成为狼牙脩皇后。

  尽管她统治着这块领土,却始终面临着与海盗船长乌鸦(威奈?克莱布饰演)结盟的反叛军彭亨府(现马来西亚西部最大的州府)王子多年来的颠覆政权活动。乌鸦率领着自己的船员正在试图寻找由荷兰人Janis Bree和中国人LimKium共同发明创造的大炮,但是这支荷兰船队却在一次爆炸中连同大炮一起沉入海底。

  Hijau皇后为了保卫并巩固自己的领土和势力范围,决定将自己最小的妹妹Ungu公主(安娜?瑞丝饰演)与Pahung王子(杰西达邦饰演)政治联姻。然而Pahung王子却深爱着皇室的Biru公主(杰克林?阿披他娜农饰演)。

  与此同时,一个名叫Pari的男孩(阿南达?艾华灵汉饰演)在小渔村里诞生了。他的父亲正是被海盗船长乌鸦所杀。为了避难,Pari于7年后被叔叔Anjar带走。为了报仇雪恨,Pari拜师学艺。在贤人白光(索拉鹏?查特理饰演)的教导下,他学会了控制海洋的魔法,并掌握了如何与海洋生物交流沟通的方法。

  为了能够从海底捞起大炮,曾经也是白光的学生如今成为海盗的乌鸦也在学习这种控制海洋的魔法。

  Hijau皇后为了能够建造属于自己的大炮来保卫领土,也在寻找着大炮的发明人之一--中国人Lim Kium。她派出自己的两名妹妹去寻找此人,而身手不凡的海军指挥官Yalang(楚鹏?常普伦饰演)则保护她们的人身安全。

  为了夺取沉在海底的大炮,Hijau皇后一帮人,反叛军彭亨府王子一伙、海盗乌鸦一伙,以及Pari都将背水一战。

 

  General #1
    ID : 1 (0x1)
    Complete name : 00000.m2ts
    Format : BDAV
    Format/Info : Blu-ray Video
    File size : 20.0 GiB
    Duration : 1h 59mn
    Overall bit rate mode : Variable
    Overall bit rate : 24.0 Mbps
    Maximum Overall bit rate : 35.5 Mbps
  Video #4113
    ID : 4113 (0x1011)
    Menu ID : 1 (0x1)
    Format : AVC
    Format/Info : Advanced Video Codec
    Format profile : High@L4.1
    Format settings, CABAC : Yes
    Format settings, ReFrames : 2 frames
    Format settings, GOP : M=3, N=18
    Codec ID : 27
    Duration : 1h 59mn
    Bit rate mode : Variable
    Bit rate : 18.0 Mbps
    Maximum bit rate : 20.0 Mbps
    Width : 1 920 pixels
    Height : 1 080 pixels
    Display aspect ratio : 16:9
    Frame rate : 23.976 fps
    Color space : YUV
    Chroma subsampling : 4:2:0
    Bit depth : 8 bits
    Scan type : Progressive
    Bits/(Pixel*Frame) : 0.361
    Stream size : 15.0 GiB (75%)
  Audio #4352
    ID : 4352 (0x1100)
    Menu ID : 1 (0x1)
    Format : PCM
    Format settings, Endianness : Big
    Format settings, Sign : Signed
    Muxing mode : Blu-ray
    Codec ID : 128
    Duration : 1h 59mn
    Bit rate mode : Constant
    Bit rate : 4 608 Kbps
    Channel(s) : 6 channels
    Channel positions : Front: L C R, Side: L R, LFE
    Sampling rate : 48.0 KHz
    Bit depth : 16 bits
    Delay relative to video : -83ms
    Stream size : 3.84 GiB (19%)
    Language : Thai
  Audio #4353
    ID : 4353 (0x1101)
    Menu ID : 1 (0x1)
    Format : AC-3
    Format/Info : Audio Coding 3
    Mode extension : CM (complete main)
    Format settings, Endianness : Big
    Codec ID : 129
    Duration : 1h 59mn
    Bit rate mode : Constant
    Bit rate : 448 Kbps
    Channel(s) : 6 channels
    Channel positions : Front: L C R, Side: L R, LFE
    Sampling rate : 48.0 KHz
    Bit depth : 16 bits
    Compression mode : Lossy
    Delay relative to video : -83ms
    Stream size : 382 MiB (2%)
    Language : Thai
  Text #4608
    ID : 4608 (0x1200)
    Menu ID : 1 (0x1)
    Format : PGS
    Codec ID : 144
    Language : Chinese
  Text #4609
    ID : 4609 (0x1201)
    Menu ID : 1 (0x1)
    Format : PGS
    Codec ID : 144
    Language : Chinese
  Text #4610
    ID : 4610 (0x1202)
    Menu ID : 1 (0x1)
    Format : PGS
    Codec ID : 144
    Language : English

  评论这张
 
阅读(171)| 评论(0)
推荐 转载

历史上的今天

在LOFTER的更多文章

评论

<#--最新日志,群博日志--> <#--推荐日志--> <#--引用记录--> <#--博主推荐--> <#--随机阅读--> <#--首页推荐--> <#--历史上的今天--> <#--被推荐日志--> <#--上一篇,下一篇--> <#-- 热度 --> <#-- 网易新闻广告 --> <#--右边模块结构--> <#--评论模块结构--> <#--引用模块结构--> <#--博主发起的投票-->
 
 
 
 
 
 
 
 
 
 
 
 
 
 

页脚

网易公司版权所有 ©1997-2017