注册 登录  
 加关注
   显示下一条  |  关闭
温馨提示!由于新浪微博认证机制调整,您的新浪微博帐号绑定已过期,请重新绑定!立即重新绑定新浪微博》  |  关闭

逆风飞翔的鸟

追逐风中散落的默契~

 
 
 

日志

 
 
关于我

曾经迷惑于一份距离 曾经感动于一个传说 …… 在仆仆风中 我伸手 抓住你我的缘分 …… “傻傻”的你 能闻到风中 你我的默契吗?!

网易考拉推荐

【亚洲】Say.Yes.2001.凶劫  

2012-08-21 13:24:53|  分类: 亚洲 |  标签: |举报 |字号 订阅

  下载LOFTER 我的照片书  |
【亚洲】Say.Yes.2001.凶劫 - 归鸿 - 逆风飞翔的鸟

◎译  名 一路惊惶/凶劫
◎片  名 Say Yes
◎年  代 2001
◎国  家 韩国
◎类  别 剧情/爱情/惊悚/犯罪
◎语  言 韩语
◎字  幕 中文
◎IMDB链接  http://www.imdb.com/title/tt0293573
◎片  长 104 Mins
◎导  演 金成洪 Sung-hong Kim
◎主  演 朴重勋 Joong-Hoon Park  ....Em
      秋相美 Sang-mi Chu  ....Yun-hie
      金柱赫 Ju-hyuk Kim  ....Jeong-hyun
      纪柱峰 Ju-bong Gi  ....Manager
      Chan-young Lee  ....Detective
      Hong-il Choi  ....Veterinarian
      金彩妍 Chae-yeon Kim
      朴勇宇 Yong-woo Park
      柳承修 Seung-su Ryu 


◎简  介 

  云姬和正贤是刚结婚才满一年的新婚夫妇,有一天正贤突然开一辆车到云姬做兼职的地方想带云姬一起去她一直渴望去的地方-冬天的海旅行。

  但通过一场小事故,云姬和正贤跟一个陌生的男人同行了。这个叫M的人面无表情,而这也正是他们的恶运来临……

一句话评论

    If you want to live, tell me I can kill your girl...

 

  General #0
    ID : 0 (0x0)
    Complete name : 00004.m2ts
    Format : BDAV
    Format/Info : Blu-ray Video
    File size : 22.3 GiB
    Duration : 1h 44mn
    Overall bit rate : 30.6 Mbps
    Maximum Overall bit rate : 48.0 Mbps
  Video #4113
    ID : 4113 (0x1011)
    Menu ID : 1 (0x1)
    Format : AVC
    Format/Info : Advanced Video Codec
    Format profile : High@L4.1
    Format settings, CABAC : Yes
    Format settings, ReFrames : 2 frames
    Format settings, GOP : M=3, N=15
    Codec ID : 27
    Duration : 1h 44mn
    Bit rate mode : Constant
    Bit rate : 24.0 Mbps
    Width : 1 920 pixels
    Height : 1 080 pixels
    Display aspect ratio : 16:9
    Frame rate : 23.976 fps
    Standard : Component
    Color space : YUV
    Chroma subsampling : 4:2:0
    Bit depth : 8 bits
    Scan type : Progressive
    Bits/(Pixel*Frame) : 0.483
    Stream size : 17.7 GiB (79%)
  Audio #4352
    ID : 4352 (0x1100)
    Menu ID : 1 (0x1)
    Format : PCM
    Format settings, Endianness : Big
    Format settings, Sign : Signed
    Muxing mode : Blu-ray
    Codec ID : 128
    Duration : 1h 44mn
    Bit rate mode : Constant
    Bit rate : 4 608 Kbps
    Channel(s) : 6 channels
    Channel positions : Front: L C R, Side: L R, LFE
    Sampling rate : 48.0 KHz
    Bit depth : 16 bits
    Delay relative to video : -83ms
    Stream size : 3.35 GiB (15%)
  Audio #4353
    ID : 4353 (0x1101)
    Menu ID : 1 (0x1)
    Format : AC-3
    Format/Info : Audio Coding 3
    Mode extension : CM (complete main)
    Format settings, Endianness : Big
    Codec ID : 129
    Duration : 1h 44mn
    Bit rate mode : Constant
    Bit rate : 448 Kbps
    Channel(s) : 6 channels
    Channel positions : Front: L C R, Side: L R, LFE
    Sampling rate : 48.0 KHz
    Bit depth : 16 bits
    Compression mode : Lossy
    Delay relative to video : -83ms
    Stream size : 334 MiB (1%)
  Text #4608
    ID : 4608 (0x1200)
    Menu ID : 1 (0x1)
    Format : PGS
    Codec ID : 144
  Text #4609
    ID : 4609 (0x1201)
    Menu ID : 1 (0x1)
    Format : PGS
    Codec ID : 144
  Text #4610
    ID : 4610 (0x1202)
    Menu ID : 1 (0x1)
    Format : PGS
    Codec ID : 144

  评论这张
 
阅读(123)| 评论(0)
推荐 转载

历史上的今天

在LOFTER的更多文章

评论

<#--最新日志,群博日志--> <#--推荐日志--> <#--引用记录--> <#--博主推荐--> <#--随机阅读--> <#--首页推荐--> <#--历史上的今天--> <#--被推荐日志--> <#--上一篇,下一篇--> <#-- 热度 --> <#-- 网易新闻广告 --> <#--右边模块结构--> <#--评论模块结构--> <#--引用模块结构--> <#--博主发起的投票-->
 
 
 
 
 
 
 
 
 
 
 
 
 
 

页脚

网易公司版权所有 ©1997-2017