注册 登录  
 加关注
   显示下一条  |  关闭
温馨提示!由于新浪微博认证机制调整,您的新浪微博帐号绑定已过期,请重新绑定!立即重新绑定新浪微博》  |  关闭

逆风飞翔的鸟

追逐风中散落的默契~

 
 
 

日志

 
 
关于我

曾经迷惑于一份距离 曾经感动于一个传说 …… 在仆仆风中 我伸手 抓住你我的缘分 …… “傻傻”的你 能闻到风中 你我的默契吗?!

网易考拉推荐

【剧情】Scooby-Doo!.The.Mystery.Begins.2009.史酷比3  

2012-08-20 10:52:03|  分类: 剧情 |  标签: |举报 |字号 订阅

  下载LOFTER 我的照片书  |
【剧情】Scooby-Doo!.The.Mystery.Begins.2009.史酷比3 - 归鸿 - 逆风飞翔的鸟

◎译  名 史酷比3
◎片  名 ScoobyDoo The Mystery Begins
◎年   代 2009   
◎国   家 美国/加拿大   
◎类   别 神秘/喜剧   
◎语   言 英语
◎字  幕 中文
◎片  长 79 Min
◎导  演 布莱恩·莱温特 Brian Levant
◎主  演 弗兰克·维尔克 Frank Welker ... Scooby Doo (voice)
      罗比·阿美尔 Robbie Amell ... Fred
      Hayley Kiyoko ... Velma
      Kate Melton ... Daphne
      Nick Palatas ... Shaggy
      Kira Clavell ... Reporter
      Lorena Gale ... The Librarian
      Gary Chalk ... Vice Principal Grimes
      Benita Ha ... Mom
      C. Ernst Harth ... The Janitor
      Dee Jay Jackson ... The Bus Driver
      Jordana Largy ... Female in car
      Shawn Macdonald ... Pripuusee
      Brian Sutton ... Ezekial Gallows
      Gavin Hetherington ... Nerd Student
      Christopher Attadia ... Male in Car
      Kristina Barr ... Panicked Stroller Woman
      Devon Thomas ... Beefy Jock


◎简  介 

    本片围绕神秘公司的第一例案件展开。在成为朋友之前,神秘公司的成员们过着各自不同的生活。起初,成员只包括jock Fred、Daphne、Velma、Shaggy。直到Scooby Doo发现他们的学校遭到破坏,他们决定走到一起,查明真相。


F:\Scooby-Doo!.The.Mystery.Begins.2009.史酷比3-14.5G\BDMV\STREAM\00000.m2ts
  General #1
    ID : 1 (0x1)
    Complete name : F:\Scooby-Doo!.The.Mystery.Begins.2009.史酷比3-14.5G\BDMV\STREAM\00000.m2ts
    Format : BDAV
    Format/Info : Blu-ray Video
    File size : 14.6 GiB
    Duration : 1h 22mn
    Overall bit rate : 25.3 Mbps
    Maximum Overall bit rate : 35.5 Mbps
  Video #4113
    ID : 4113 (0x1011)
    Menu ID : 1 (0x1)
    Format : VC-1
    Format profile : Advanced@L3
    Codec ID : 234
    Duration : 1h 22mn
    Bit rate : 23.6 Mbps
    Width : 1 920 pixels
    Height : 1 080 pixels
    Display aspect ratio : 16:9
    Frame rate : 23.976 fps
    Chroma subsampling : 4:2:0
    Bit depth : 8 bits
    Scan type : Progressive
    Compression mode : Lossy
    Bits/(Pixel*Frame) : 0.475
    Stream size : 13.6 GiB (93%)
  Audio #4352
    ID : 4352 (0x1100)
    Menu ID : 1 (0x1)
    Format : AC-3
    Format/Info : Audio Coding 3
    Mode extension : CM (complete main)
    Format settings, Endianness : Big
    Codec ID : 129
    Duration : 1h 22mn
    Bit rate mode : Constant
    Bit rate : 640 Kbps
    Channel(s) : 6 channels
    Channel positions : Front: L C R, Side: L R, LFE
    Sampling rate : 48.0 KHz
    Bit depth : 16 bits
    Compression mode : Lossy
    Stream size : 377 MiB (3%)
    Language : English
  Text #4608
    ID : 4608 (0x1200)
    Menu ID : 1 (0x1)
    Format : PGS
    Codec ID : 144
    Language : Chinese
  Text #4609
    ID : 4609 (0x1201)
    Menu ID : 1 (0x1)
    Format : PGS
    Codec ID : 144
    Language : English
  Text #4610
    ID : 4610 (0x1202)
    Menu ID : 1 (0x1)
    Format : PGS
    Codec ID : 144
    Language : French
  Text #4611
    ID : 4611 (0x1203)
    Menu ID : 1 (0x1)
    Format : PGS
    Codec ID : 144
    Language : German
  Text #4612
    ID : 4612 (0x1204)
    Menu ID : 1 (0x1)
    Format : PGS
    Codec ID : 144
    Language : Italian
  Text #4613
    ID : 4613 (0x1205)
    Menu ID : 1 (0x1)
    Format : PGS
    Codec ID : 144
    Language : Italian
  Text #4614
    ID : 4614 (0x1206)
    Menu ID : 1 (0x1)
    Format : PGS
    Codec ID : 144
    Language : English
  Text #4615
    ID : 4615 (0x1207)
    Menu ID : 1 (0x1)
    Format : PGS
    Codec ID : 144
    Language : German
  Text #4616
    ID : 4616 (0x1208)
    Menu ID : 1 (0x1)
    Format : PGS
    Codec ID : 144
    Delay relative to video : 1s 1ms
    Language : Spanish

  评论这张
 
阅读(209)| 评论(0)
推荐 转载

历史上的今天

在LOFTER的更多文章

评论

<#--最新日志,群博日志--> <#--推荐日志--> <#--引用记录--> <#--博主推荐--> <#--随机阅读--> <#--首页推荐--> <#--历史上的今天--> <#--被推荐日志--> <#--上一篇,下一篇--> <#-- 热度 --> <#-- 网易新闻广告 --> <#--右边模块结构--> <#--评论模块结构--> <#--引用模块结构--> <#--博主发起的投票-->
 
 
 
 
 
 
 
 
 
 
 
 
 
 

页脚

网易公司版权所有 ©1997-2017