注册 登录  
 加关注
   显示下一条  |  关闭
温馨提示!由于新浪微博认证机制调整,您的新浪微博帐号绑定已过期,请重新绑定!立即重新绑定新浪微博》  |  关闭

逆风飞翔的鸟

追逐风中散落的默契~

 
 
 

日志

 
 
关于我

曾经迷惑于一份距离 曾经感动于一个传说 …… 在仆仆风中 我伸手 抓住你我的缘分 …… “傻傻”的你 能闻到风中 你我的默契吗?!

网易考拉推荐
GACHA精选

【剧情】Stan.Helsing.2009.斯坦海尔辛  

2012-08-19 22:53:58|  分类: 剧情 |  标签: |举报 |字号 订阅

  下载LOFTER 我的照片书  |
【剧情】Stan.Helsing.2009.斯坦海尔辛 - 归鸿 - 逆风飞翔的鸟

◎译  名 斯坦·海尔辛
◎片  名 Stan Helsing
◎年  代 2009
◎国  家 美国/加拿大
◎类  别 恐怖/喜剧
◎语  言 英语
◎字  幕 中文
◎IMDB链接  http://www.imdb.com/title/tt1185266/
◎片  长 90 Mins
◎导  演 Bo Zenga
◎主  演 Leslie Nielsen
      Diora Baird ... Nadine
      Steve Howey ... Stan Helsing
      Kenan Thompson ... Teddy
      Ben Cotton ... Fweddy
      Holly Eglington ... Bride
      Ildiko Ferenczi ... Bride of Dracula
      Tara Wilson ... Screaming Woman
      Desi Lydic ... Mia
      Zorianna Kit ... Herself
      Elysia Rotaru ... Sexy employee
      Denyc ... Bride
      Kathryn Kirkpatrick ... Bathroom lady
      

◎简  介 

    杰克船长、黑超人等一众山寨英雄齐聚一堂,与美国史上最邪恶的恐怖片BOSS展开一场大对决。

 

  General #1
    ID : 1 (0x1)
    Complete name : 00000.m2ts
    Format : BDAV
    Format/Info : Blu-ray Video
    File size : 19.4 GiB
    Duration : 1h 30mn
    Overall bit rate : 30.8 Mbps
    Maximum Overall bit rate : 35.5 Mbps
  Video #4113
    ID : 4113 (0x1011)
    Menu ID : 1 (0x1)
    Format : VC-1
    Format profile : Advanced@L3
    Codec ID : 234
    Duration : 1h 30mn
    Bit rate : 24.3 Mbps
    Width : 1 920 pixels
    Height : 1 080 pixels
    Display aspect ratio : 16:9
    Frame rate : 23.976 fps
    Chroma subsampling : 4:2:0
    Bit depth : 8 bits
    Scan type : Progressive
    Compression mode : Lossy
    Bits/(Pixel*Frame) : 0.488
    Stream size : 15.3 GiB (79%)
  Audio #4352
    ID : 4352 (0x1100)
    Menu ID : 1 (0x1)
    Format : PCM
    Format settings, Endianness : Big
    Format settings, Sign : Signed
    Muxing mode : Blu-ray
    Codec ID : 128
    Duration : 1h 30mn
    Bit rate mode : Constant
    Bit rate : 4 608 Kbps
    Channel(s) : 6 channels
    Channel positions : Front: L C R, Side: L R, LFE
    Sampling rate : 48.0 KHz
    Bit depth : 16 bits
    Stream size : 2.91 GiB (15%)
    Language : English
  Audio #4353
    ID : 4353 (0x1101)
    Menu ID : 1 (0x1)
    Format : AC-3
    Format/Info : Audio Coding 3
    Mode extension : CM (complete main)
    Format settings, Endianness : Big
    Codec ID : 129
    Duration : 1h 30mn
    Bit rate mode : Constant
    Bit rate : 640 Kbps
    Channel(s) : 6 channels
    Channel positions : Front: L C R, Side: L R, LFE
    Sampling rate : 48.0 KHz
    Bit depth : 16 bits
    Compression mode : Lossy
    Stream size : 414 MiB (2%)
    Language : English
  Text #4608
    ID : 4608 (0x1200)
    Menu ID : 1 (0x1)
    Format : PGS
    Codec ID : 144
    Language : Chinese
  Text #4609
    ID : 4609 (0x1201)
    Menu ID : 1 (0x1)
    Format : PGS
    Codec ID : 144
    Language : English

  评论这张
 
阅读(126)| 评论(0)
推荐 转载

历史上的今天

在LOFTER的更多文章

评论

<#--最新日志,群博日志--> <#--推荐日志--> <#--引用记录--> <#--博主推荐--> <#--随机阅读--> <#--首页推荐--> <#--历史上的今天--> <#--被推荐日志--> <#--上一篇,下一篇--> <#-- 热度 --> <#-- 网易新闻广告 --> <#--右边模块结构--> <#--评论模块结构--> <#--引用模块结构--> <#--博主发起的投票-->
 
 
 
 
 
 
 
 
 
 
 
 
 
 

页脚

网易公司版权所有 ©1997-2017