注册 登录  
 加关注
   显示下一条  |  关闭
温馨提示!由于新浪微博认证机制调整,您的新浪微博帐号绑定已过期,请重新绑定!立即重新绑定新浪微博》  |  关闭

逆风飞翔的鸟

追逐风中散落的默契~

 
 
 

日志

 
 
关于我

曾经迷惑于一份距离 曾经感动于一个传说 …… 在仆仆风中 我伸手 抓住你我的缘分 …… “傻傻”的你 能闻到风中 你我的默契吗?!

网易考拉推荐

【动作】Who.Dares.Wins.1982.SAS特种部队  

2012-08-17 17:00:16|  分类: 动作 |  标签: |举报 |字号 订阅

  下载LOFTER 我的照片书  |
【动作】Who.Dares.Wins.1982.SAS特种部队 - 归鸿 - 逆风飞翔的鸟

◎译  名 SAS特种部队/反恐怖战队/勇者无惧
◎片  名 Who Dares Wins
◎年  代 1982
◎国  家 英国/瑞士
◎类  别 动作
◎语  言 英语
◎字  幕 中文
◎IMDB链接  http://www.imdb.com/title/tt0083941/
◎片  长 125 mins
◎导  演 伊恩·夏普 Ian Sharp
◎主  演 Lewis Collins ....Capt. Peter Skellen
      朱迪·戴维斯 Judy Davis ....Frankie Leith
      理查德·威德马克 Richard Widmark ....Secretary of State Arthur Currie
      爱德华·伍德华德 Edward Woodward ....Commander Powell
      Robert Webber ....General Ira Potter
      托尼·杜瓦勒 Tony Doyle ....Colonel Hadley
      John Duttine ....Rod Walker
      Kenneth Griffith ....Bishop Crick
      Rosalind Lloyd ....Jenny Skellen
      Ingrid Pitt ....Helga
      Norman Rodway ....Ryan
      Maurice Ro?ves ....Maj. Steele (as Maurice R?eves)
      Bob Sherman ....Hagen
      Albert Fortell ....Freund
      Mark Ryan ....Mac
      Patrick Allen ....Police Commissioner
      Aharon Ipalé ....Malek (as Aharon Ipale)
      保罗·弗里曼 Paul Freeman ....Sir Richard
      Briony Elliott ....Baby Samantha
      Jerry Donahue ....Pop group
      Marc Donahue ....Pop group
      Gerry Conway ....Pop group
      Dave Pegg ....Pop group
      Alan Mitchell ....Harkness
      Richard Coleman ....Mr. Martin
      Nigel Humphreys ....Sgt. Pope
      Stephen Bent ....Neil
      Martyn Jacobs ....Policeman at Mews
      Raymond Brody ....Bank manager
      Andrew MacLachlan ....Immigration officer (as Andrew McLachlan)
      Oz Clarke ....Special Branch Man
      Peter Geddis ....Butler
      Jon Morrison ....Dennis
      Trevor Byfield ....Baker (as Ziggy Byfield)
      Michael Forrest ....Pickley
      Don Fellows ....Ambassador Franklin
      Alan Gifford ....Sen. Kohoskie (as Allan Gifford)
      John Woodnutt ....Harold Staunton
      Nick Brimble ....Williamson
      Michael Godley ....M.P.
      Meg Davies ....Mary Tinker (as Meg Davis)
      Lynne Miller ....Melissa
      Christopher Muncke ....U.S. Security Man
      Anna Ford ....Newscaster
      Bill Hamilton ....Newscaster
      Alan Polonsky ....U.S. Marine Guard
      Martin Grace ....U.S. Marine Guard
      Tariq Yunus ....Terrorist
      Bruce White ....Terrorist
      Patrick Gordon ....Terrorist
      Niall Padden ....Terrorist
      Tony Osoba ....Terrorist
      Glyn Baker ....Terrorist
      Ben Howard ....Terrorist
      Alan Renwick ....Terrorist (as Alyn Renwick)
      Peter Turner ....Terrorist
      Simon Heywood ....Terrorist
      Ralph Arliss ....Terrorist
      伊万·斯图尔特 Ewan Stewart ....Terrorist
      Billy McBain ....Terrorist
      Martin Denning ....SAS technician (uncredited)


◎简  介

  二十世纪八十年代,英国为了抵御恐怖__粪子的袭击,成立了SAS特种部队。配备了先进的现代化武器,以及防毒面具,堪称一支战无不胜的特种部队。当时美国方面派出官员要和英国联合开发核武器,但是这却遭到了激进分子的强力反对,并举行了大规模的示威游行,并打出了“核武器不能带来和平”的口号,不过这样并没有达到他们的目的,以弗兰奇为首的秘密集团策划了一次绑架美国来访人员的行动,并以此要求政府答应他们的要求,未了保证人质的安全,英国政府派出了SAS特种部队史卡伦上尉潜入绑架集团,从此一幕幕神秘而残酷的间谍活动开始了……为了解救人质,政府出动了SAS特种部队的所有人员,激烈的战斗从此开始了……

 

  General #1
    ID : 1 (0x1)
    Complete name : 00000.m2ts
    Format : BDAV
    Format/Info : Blu-ray Video
    File size : 15.4 GiB
    Duration : 2h 5mn
    Overall bit rate mode : Variable
    Overall bit rate : 17.6 Mbps
    Maximum Overall bit rate : 35.5 Mbps
  Video #4113
    ID : 4113 (0x1011)
    Menu ID : 1 (0x1)
    Format : AVC
    Format/Info : Advanced Video Codec
    Format profile : Main@L4.1
    Format settings, CABAC : No
    Format settings, ReFrames : 3 frames
    Codec ID : 27
    Duration : 2h 5mn
    Bit rate mode : Variable
    Bit rate : 15.0 Mbps
    Maximum bit rate : 40.0 Mbps
    Width : 1 920 pixels
    Height : 1 080 pixels
    Display aspect ratio : 16:9
    Frame rate : 23.976 fps
    Color space : YUV
    Chroma subsampling : 4:2:0
    Bit depth : 8 bits
    Scan type : Progressive
    Bits/(Pixel*Frame) : 0.302
    Stream size : 13.5 GiB (87%)
    Writing library : x264 core 80 r1376M 3feaec2
    Encoding settings : cabac=0 / ref=4 / deblock=0:0:0 / analyse=0x1:0 / me=dia / subme=7 / psy=1 / psy_rd=1.0:0.0 / mixed_ref=1 / me_range=16 / chroma_me=1 / trellis=0 / 8x8dct=0 / cqm=0 / deadzone=21,11 / fast_pskip=1 / chroma_qp_offset=-2 / threads=12 / sliced_threads=0 / slices=4 / nr=0 / decimate=1 / mbaff=0 / constrained_intra=0 / bframes=3 / b_pyramid=1 / b_adapt=1 / b_bias=0 / direct=1 / wpredb=1 / wpredp=0 / keyint=24 / keyint_min=2 / scenecut=0 / rc_lookahead=0 / rc=2pass / mbtree=0 / bitrate=15000 / ratetol=1.0 / qcomp=0.60 / qpmin=10 / qpmax=51 / qpstep=4 / cplxblur=20.0 / qblur=0.5 / vbv_maxrate=40000 / vbv_bufsize=30000 / ip_ratio=1.40 / pb_ratio=1.30 / aq=0
    Language : English
  Audio #4352
    ID : 4352 (0x1100)
    Menu ID : 1 (0x1)
    Format : PCM
    Format settings, Endianness : Big
    Format settings, Sign : Signed
    Muxing mode : Blu-ray
    Codec ID : 128
    Duration : 2h 4mn
    Bit rate mode : Constant
    Bit rate : 1 536 Kbps
    Channel(s) : 2 channels
    Channel positions : Front: L R
    Sampling rate : 48.0 KHz
    Bit depth : 16 bits
    Stream size : 1.34 GiB (9%)
    Language : English
  Text #4608
    ID : 4608 (0x1200)
    Menu ID : 1 (0x1)
    Format : PGS
    Codec ID : 144
    Language : Chinese
  Text #4609
    ID : 4609 (0x1201)
    Menu ID : 1 (0x1)
    Format : PGS
    Codec ID : 144
    Language : Chinese

  评论这张
 
阅读(147)| 评论(0)
推荐 转载

历史上的今天

在LOFTER的更多文章

评论

<#--最新日志,群博日志--> <#--推荐日志--> <#--引用记录--> <#--博主推荐--> <#--随机阅读--> <#--首页推荐--> <#--历史上的今天--> <#--被推荐日志--> <#--上一篇,下一篇--> <#-- 热度 --> <#-- 网易新闻广告 --> <#--右边模块结构--> <#--评论模块结构--> <#--引用模块结构--> <#--博主发起的投票-->
 
 
 
 
 
 
 
 
 
 
 
 
 
 

页脚

网易公司版权所有 ©1997-2017