注册 登录  
 加关注
查看详情
   显示下一条  |  关闭
温馨提示!由于新浪微博认证机制调整,您的新浪微博帐号绑定已过期,请重新绑定!立即重新绑定新浪微博》  |  关闭

逆风飞翔的鸟

追逐风中散落的默契~

 
 
 

日志

 
 
关于我

曾经迷惑于一份距离 曾经感动于一个传说 …… 在仆仆风中 我伸手 抓住你我的缘分 …… “傻傻”的你 能闻到风中 你我的默契吗?!

【剧情】Hurricane.Season.2009.飓风季节  

2012-08-17 22:53:38|  分类: 剧情 |  标签: |举报 |字号 订阅

  下载LOFTER 我的照片书  |
【剧情】Hurricane.Season.2009.飓风季节 - 归鸿 - 逆风飞翔的鸟

◎译  名 飓风季节
 ◎片  名 Hurricane Season
 ◎年  代 2009
 ◎国  家 美国
 ◎类  别 剧情/体育
 ◎语  言 英语
 ◎IMDB链接  http://www.imdb.com/title/tt1172998/
 ◎片  长 102 mins 26 seconds                                                      
 ◎导  演 蒂姆·斯托瑞 Tim Story
 ◎主  演 福里斯特·惠特克 Forest Whitaker ....Al Collins
       艾赛亚·华盛顿 Isaiah Washington ....Coach Simmons
       科里奥·托马斯 Khleo Thomas ....Raymond
       考特尼·万斯 Courtney B. Vance ....Mr. Randolph
       艾尔玛·霍尔 Irma P. Hall ....Grandma Rose
       杰基·朗 Jackie Long
       宝娃 Bow Wow ....Gary
       塔拉吉·P·汉森 Taraji P. Henson ....Dayna Collins
       里尔·韦恩 Lil' Wayne ....Lamont
       琪娜·安妮·麦克兰 China Anne McClain ....Alana Collins
       Michael Gaston ....Coach Frank Landon
       J.B. Smoove
       Robbie Jones
       Natasha "Sasha" Angelety ....Motel Patron
       Lance E. Nichols ....Pastor at Rec Center
       Deneen Tyler ....Stephanie Davis
       Jarod Einsohn ....Randy Verdin
       Elton LeBlanc ....Basketball Coach
       Maliek Golden ....Kendall Davis
       Sharon K. London ....Shop Keeper
       Jalene Mack ....Andrea Wall
       Victor Hugo Palacios ....National Guardsman
       Cynthia LeBlanc ....Head Nurse
       Anthony Michael Frederick ....Maurice
       Eric D. Hill Jr. ....Christian
       Larry Gamell Jr. ....Reverend
       Antoine Spillers ....Church Member
       Dewayne Bateman ....Fan (uncredited)
       Geraldine Glenn ....Fan (uncredited)
       Rodney Hebert ....Basketball Game Spectator (uncredited)
       Jay Oliver ....Storm Survivor (uncredited)
       Chaz Smith ....Superdome Evacuee / Basketball Fan (uncredited)
       塔拉·里格斯 Tarra Riggs ....Leslee Suthall
       Marcus Lyle Brown ....Jonathan's Father
       Samantha Beaulieu ....Barricade Cop #2
       J. Omar Castro ....Barricade Cop
       Mark E. Howell ....Fan
       Ryan Dunston ....Basketball player
       Jeremy Dean Turner ....Basketball Fan
       Kesha Bullard ....Young Mother #1
       Liann Pattison ....Raymond's Nurse
       Elise Kaywood ....High School Student
       Rob Salvador ....Panther Fan
       Kimberly North ....Reporter
       Jessica "Jessie" Blake ....Security Guard (uncredited)
       Heather Clark ....Storm Survivor (uncredited)
       Kay Freeman ....Fan (uncredited)
       Topher Jones ....Cop (uncredited)
       Jeremy Evan Kerr ....Lion Basketball Fan (uncredited)
       Lyssa Prine ....Panther Fan (uncredited)
       Scott Schlueter ....Metropolitan Police (uncredited)
       Dawna Williams ....Basketball Game Spectator (uncredited)
       Odessa Sykes ....Gary's Nurse
       Lindsey G. Smith ....Courtney
       Laurie Lee ....Basketball Fan (uncredited)
 

◎简  介 
 
    故事设定在卡特里娜飓风发生过后,艾尔·柯林斯是奥尔良一所高中的篮球老师。因为飓风使其他许多学校遭到破坏,无法进行再教学,因此很多学生转入了他所在的高中继续学习。艾尔要带领着来自不同学校的篮球队员们,向州篮球锦标赛发起冲击。但是除了刻苦的训练,艾尔还要处理好学生间的矛盾,一大堆困难等待着他去解决……
 


  General #0
    ID : 0 (0x0)
    Complete name : 00003.m2ts
    Format : BDAV
    Format/Info : Blu-ray Video
    File size : 21.7 GiB
    Duration : 1h 42mn
    Overall bit rate mode : Variable
    Overall bit rate : 30.3 Mbps
    Maximum Overall bit rate : 48.0 Mbps
  Video #4113
    ID : 4113 (0x1011)
    Menu ID : 1 (0x1)
    Format : AVC
    Format/Info : Advanced Video Codec
    Format profile : High@L4.1
    Format settings, CABAC : Yes
    Format settings, ReFrames : 4 frames
    Format settings, GOP : M=3, N=24
    Codec ID : 27
    Duration : 1h 42mn
    Bit rate mode : Variable
    Bit rate : 26.9 Mbps
    Maximum bit rate : 36.0 Mbps
    Width : 1 920 pixels
    Height : 1 080 pixels
    Display aspect ratio : 16:9
    Frame rate : 23.976 fps
    Standard : NTSC
    Color space : YUV
    Chroma subsampling : 4:2:0
    Bit depth : 8 bits
    Scan type : Progressive
    Bits/(Pixel*Frame) : 0.541
    Stream size : 19.2 GiB (89%)
    Color primaries : BT.709-5, BT.1361, IEC 61966-2-4, SMPTE RP177
    Transfer characteristics : BT.709-5, BT.1361
    Matrix coefficients : BT.709-5, BT.1361, IEC 61966-2-4 709, SMPTE RP177
  Audio #4352
    ID : 4352 (0x1100)
    Menu ID : 1 (0x1)
    Format : DTS
    Format/Info : Digital Theater Systems
    Muxing mode : Stream extension
    Codec ID : 134
    Duration : 1h 42mn
    Bit rate mode : Constant
    Bit rate : 1 510 Kbps
    Channel(s) : 6 channels
    Channel positions : Front: L C R, Side: L R, LFE
    Sampling rate : 48.0 KHz
    Bit depth : 16 bits
    Compression mode : Lossy
    Stream size : 1.08 GiB (5%)
  Audio #4353
    ID : 4353 (0x1101)
    Menu ID : 1 (0x1)
    Format : AC-3
    Format/Info : Audio Coding 3
    Mode extension : CM (complete main)
    Format settings, Endianness : Big
    Codec ID : 129
    Duration : 11s 616ms
    Bit rate mode : Constant
    Bit rate : 640 Kbps
    Channel(s) : 6 channels
    Channel positions : Front: L C R, Side: L R, LFE
    Sampling rate : 48.0 KHz
    Bit depth : 16 bits
    Compression mode : Lossy
    Stream size : 908 KiB (0%)
  Text #4608
    ID : 4608 (0x1200)
    Menu ID : 1 (0x1)
    Format : PGS
    Codec ID : 144
  Text #4609
    ID : 4609 (0x1201)
    Menu ID : 1 (0x1)
    Format : PGS
    Codec ID : 144

  评论这张
 
阅读(176)| 评论(0)
推荐 转载

历史上的今天

评论

<#--最新日志,群博日志--> <#--推荐日志--> <#--引用记录--> <#--博主推荐--> <#--随机阅读--> <#--首页推荐--> <#--历史上的今天--> <#--被推荐日志--> <#--上一篇,下一篇--> <#-- 热度 --> <#-- 网易新闻广告 --> <#--右边模块结构--> <#--评论模块结构--> <#--引用模块结构--> <#--博主发起的投票-->
 
 
 
 
 
 
 
 
 
 
 
 
 
 

页脚

网易公司版权所有 ©1997-2018