注册 登录  
 加关注
   显示下一条  |  关闭
温馨提示!由于新浪微博认证机制调整,您的新浪微博帐号绑定已过期,请重新绑定!立即重新绑定新浪微博》  |  关闭

逆风飞翔的鸟

追逐风中散落的默契~

 
 
 

日志

 
 
关于我

曾经迷惑于一份距离 曾经感动于一个传说 …… 在仆仆风中 我伸手 抓住你我的缘分 …… “傻傻”的你 能闻到风中 你我的默契吗?!

网易考拉推荐

【动作】The.Resident.2011.入侵隐私  

2012-08-13 09:07:34|  分类: 动作 |  标签: |举报 |字号 订阅

  下载LOFTER 我的照片书  |
【动作】The.Resident.2011.入侵隐私 - 归鸿 - 逆风飞翔的鸟

◎译  名 入侵隐私
◎片  名 The Resident
◎年  代 2011
◎国  家 美国/英国
◎类  别 剧情/恐怖/惊悚
◎语  言 英语
◎字  幕 中文
◎IMDB链接  http://www.imdb.com/title/tt1334102/
◎片  长 91 Min
◎导  演 安提·乔金恩 Antti Jokinen ....(as Antti J. Jokinen)
◎主  演 希拉里·斯万克 Hilary Swank ....Dr. Juliet Dermer
       杰弗里·迪恩·摩根 Jeffrey Dean Morgan ....Max
       克里斯托弗·李 Christopher Lee ....August
       李·佩斯 Lee Pace ....Jack
       Aunjanue Ellis
       迈克尔·马西 Michael Massee ....Security tech / forgot name
       Penny Balfour ....Meth Addict
       Peggy Miley ....Mrs. Rosenbaum
       Kisha Sierra ....Good looking girl
       Michael Showers ....August's ER Doctor
       亚历桑德丽娅·莫罗 Alexandria Morrow ....Art Model
       Cliff Gravel ....E. R. Patient
       Sandi K Shelby ....E.R. Doctor
       Skippy the Dog ....Amelie
       Steven Ray Byrd ....Paramedic (uncredited)
       Eliezer Meyer ....Rabbi Elli (uncredited
 

◎简  介 
 
    讲述的是年轻女医生搬入美国布鲁克林区一家阁楼之中,而自从乔迁之后出现的一系列神秘事件令她怀疑自己的房内还有其他人的存在。最后发现,外表潇洒的房主对自己产生了病态的迷恋,并布下陷阱将自己置于一场可怕的猫鼠游戏之中。。。。。。

 

  General #1
    ID : 1 (0x1)
    Complete name : 00000.m2ts
    Format : BDAV
    Format/Info : Blu-ray Video
    File size : 14.7 GiB
    Duration : 1h 31mn
    Overall bit rate mode : Variable
    Overall bit rate : 23.0 Mbps
    Maximum Overall bit rate : 35.5 Mbps
  Video #4113
    ID : 4113 (0x1011)
    Menu ID : 1 (0x1)
    Format : AVC
    Format/Info : Advanced Video Codec
    Format profile : High@L4.1
    Format settings, CABAC : Yes
    Format settings, ReFrames : 4 frames
    Codec ID : 27
    Duration : 1h 31mn
    Bit rate mode : Variable
    Bit rate : 20.1 Mbps
    Maximum bit rate : 36.0 Mbps
    Width : 1 920 pixels
    Height : 1 080 pixels
    Display aspect ratio : 16:9
    Frame rate : 23.976 fps
    Standard : NTSC
    Color space : YUV
    Chroma subsampling : 4:2:0
    Bit depth : 8 bits
    Scan type : Progressive
    Bits/(Pixel*Frame) : 0.404
    Stream size : 12.8 GiB (87%)
    Color primaries : BT.709-5, BT.1361, IEC 61966-2-4, SMPTE RP177
    Transfer characteristics : BT.709-5, BT.1361
    Matrix coefficients : BT.709-5, BT.1361, IEC 61966-2-4 709, SMPTE RP177
  Audio #4352
    ID : 4352 (0x1100)
    Menu ID : 1 (0x1)
    Format : DTS
    Format/Info : Digital Theater Systems
    Format profile : HRA / Core
    Muxing mode : Stream extension
    Codec ID : 133
    Duration : 1h 30mn
    Bit rate mode : Constant
    Bit rate : 2 047 Kbps / 1 510 Kbps
    Channel(s) : 6 channels
    Channel positions : Front: L C R, Side: L R, LFE
    Sampling rate : 48.0 KHz
    Bit depth : 24 bits
    Compression mode : Lossy
    Stream size : 1.30 GiB (9%)
    Language : English
  Text #4608
    ID : 4608 (0x1200)
    Menu ID : 1 (0x1)
    Format : PGS
    Codec ID : 144
    Language : Chinese
  Text #4609
    ID : 4609 (0x1201)
    Menu ID : 1 (0x1)
    Format : PGS
    Codec ID : 144
    Language : Chinese
  Text #4610
    ID : 4610 (0x1202)
    Menu ID : 1 (0x1)
    Format : PGS
    Codec ID : 144
    Language : German

  评论这张
 
阅读(128)| 评论(0)
推荐 转载

历史上的今天

在LOFTER的更多文章

评论

<#--最新日志,群博日志--> <#--推荐日志--> <#--引用记录--> <#--博主推荐--> <#--随机阅读--> <#--首页推荐--> <#--历史上的今天--> <#--被推荐日志--> <#--上一篇,下一篇--> <#-- 热度 --> <#-- 网易新闻广告 --> <#--右边模块结构--> <#--评论模块结构--> <#--引用模块结构--> <#--博主发起的投票-->
 
 
 
 
 
 
 
 
 
 
 
 
 
 

页脚

网易公司版权所有 ©1997-2017