注册 登录  
 加关注
   显示下一条  |  关闭
温馨提示!由于新浪微博认证机制调整,您的新浪微博帐号绑定已过期,请重新绑定!立即重新绑定新浪微博》  |  关闭

逆风飞翔的鸟

追逐风中散落的默契~

 
 
 

日志

 
 
关于我

曾经迷惑于一份距离 曾经感动于一个传说 …… 在仆仆风中 我伸手 抓住你我的缘分 …… “傻傻”的你 能闻到风中 你我的默契吗?!

网易考拉推荐

【幻想】The.Exorcism.Of.Emily.Rose.2005.驱魔  

2012-08-13 08:51:20|  分类: 幻想 |  标签: |举报 |字号 订阅

  下载LOFTER 我的照片书  |
【幻想】The.Exorcism.Of.Emily.Rose.2005.驱魔 - 归鸿 - 逆风飞翔的鸟

【影片原名】The.Exorcism.of.Emily.Rose
【中文名称】驱魔
【影片类型】惊悚/剧情
【影片时长】121分钟
【出品公司】Screen Gems
【出品年代】2005
【上映日期】2005 年 9月 9日
【IMDB链接】http://www.imdb.com/title/tt0404032/
【导  演】斯科特·德里克森 ScottDerrickson
【主  演】劳拉·琳妮 Laura Linney
       坎比·斯科特 Campbell Scott
       Shohreh Aghdashloo
       JR·伯恩 JR Bourne
       阿隆·道格拉斯 Aaron Douglas
       柯姆·菲尔 Colm Feore
       罗蕾纳·盖尔 Lorena Gale
 

【简  介】 
 
  19岁的女孩艾米丽·罗丝(珍妮弗·卡彭特饰)与其他人一样,过着平淡无奇的大一生活,直到她生了一场大病之后,一切都变得与众不同了。她整天被奇异、恐怖的幻觉所困扰,甚至变得神志不清、疯疯癫癫。不但校医对她的病情束手无策,连资深的专家也是无从下手。于是,在少有的争议决议下,天主教堂收容了被认定为恶魔缠身的艾米丽,并由摩尔神父为她进行驱魔仪式。遗憾的是,正义没能战胜**,虚弱的艾米丽经受不了强硬的驱魔仪式而送命,教堂与摩尔神父也因此被民间团体送上了法庭的被告席上。
 
  为摩尔神父辩护的是精明能乾的女律师艾琳·布鲁勒(劳拉·琳妮饰),她是一家律师事务所的合作人之一,也是一位典型的女强人。特别是在近期的一件高智商谋杀案中,艾琳凭着三寸不烂之舌将一个几乎被判定死罪的谋杀犯从铡刀下解救出来,并无罪释放。艾琳也因此跃升为律师界一颗耀眼的新星,备受关注。所以,当事务所的老板卡尔(柯姆·菲尔饰)将这件诉讼案交给艾琳时,她毫不犹豫地接了下来,因为这是她进一步扩大声誉、坐到事务所头把交椅的最佳良机。
 
  为了避免引起宗教冲突和社会各方的指责,公诉人检察官办公室决定派出中庸的律师伊桑·托马斯(坎贝尔·斯科特)来做诉讼律师。伊桑是一个思想正统、信奉天主教的人,每周还会去虔诚地做礼拜。而无神论者艾琳却负责为摩尔神父辩护,这可煞费了她的脑筋。然而,随着辩护的逐渐推进,艾琳遇到了人生中最诡异、神秘的灵异经验,这是否会改变她之前的信念呢?摩尔神父又是否能最终获释呢?
 

幕后故事:最爱“罗生门”
 

  《驱魔》取材于1976年发生于德国巴伐利亚的真实事件,主人公原型为安妮莉丝?米歇尔,深受精神困扰的她最终死于饥饿所致的器官功能衰竭,法医在尸体解剖时诊断其病症为颞叶癫痫,当时实施驱魔仪式的是两位神父,他们与安妮莉丝的父母一道被指控为过失杀人罪,被判入狱6个月并缓期执行。
 
  该事件集法庭辩护与灵异驱魔于一身,因此为电影人提供了良好的创作平台,“故事简单,情节很离奇;人物很少,内涵却深刻”,导演斯科特?德里克森在构思《驱魔》的剧本时借鉴了电影《罗生门》的叙事精髓,法庭辩护的过程中穿插以闪回片段对整个事件进行回溯,为了加大剧情的张力,故事以无神论者——女律师艾琳?布鲁纳的视角展开,虽然身为辩护律师,但艾琳的内心一直处于矛盾纠葛的状态,从而引发了个人信仰上的冲突。
 
  上帝还是恶魔、信仰抑或愚昧,每人心中都有一个既定的答案,斯科特坦言,《驱魔》之所以采用了多视角的叙事手法就是希望观众通过自己的双眼判定出事实的真相,就像他所景仰的 “电影界的莎士比亚”黑泽明在拍摄《罗生门》时的重心所在:不强调叙事而强调思辨。《驱魔》是斯科特与编剧保罗?哈里斯?鲍德曼第三次搭档编写剧本,二人之前曾联手创作了《下一个就是你:终结版》、《养鬼吃人:直下地狱》等热门影视剧本,对于鬼神类的恐怖题材的创作可谓轻车熟路。
 


  General #1
    ID : 1 (0x1)
    Complete name : 00000.m2ts
    Format : BDAV
    Format/Info : Blu-ray Video
    File size : 30.5 GiB
    Duration : 2h 1mn
    Overall bit rate mode : Variable
    Overall bit rate : 35.8 Mbps
    Maximum Overall bit rate : 35.5 Mbps
  Video #4113
    ID : 4113 (0x1011)
    Menu ID : 1 (0x1)
    Format : AVC
    Format/Info : Advanced Video Codec
    Format profile : High@L4.1
    Format settings, CABAC : Yes
    Format settings, ReFrames : 4 frames
    Codec ID : 27
    Duration : 2h 1mn
    Bit rate mode : Constant
    Bit rate : 33.7 Mbps
    Nominal bit rate : 31.0 Mbps
    Width : 1 920 pixels
    Height : 1 080 pixels
    Display aspect ratio : 16:9
    Frame rate : 23.976 fps
    Color space : YUV
    Chroma subsampling : 4:2:0
    Bit depth : 8 bits
    Scan type : Progressive
    Bits/(Pixel*Frame) : 0.679
    Stream size : 28.7 GiB (94%)
    Color primaries : BT.709-5, BT.1361, IEC 61966-2-4, SMPTE RP177
    Transfer characteristics : BT.709-5, BT.1361
    Matrix coefficients : BT.709-5, BT.1361, IEC 61966-2-4 709, SMPTE RP177
  Audio #4352
    ID : 4352 (0x1100)
    Menu ID : 1 (0x1)
    Format : TrueHD
    Muxing mode : Stream extension
    Codec ID : 131
    Duration : 7s 662ms
    Bit rate mode : Variable
    Bit rate : 640 Kbps
    Maximum bit rate : 3 141 Kbps
    Channel(s) : 6 channels
    Channel positions : Front: L C R, Side: L R, LFE
    Sampling rate : 48.0 KHz
    Compression mode : Lossless
    Stream size : 599 KiB (0%)
    Language : English
  Text #4608
    ID : 4608 (0x1200)
    Menu ID : 1 (0x1)
    Format : PGS
    Codec ID : 144
    Language : Chinese
  Text #4609
    ID : 4609 (0x1201)
    Menu ID : 1 (0x1)
    Format : PGS
    Codec ID : 144
    Language : English
  Text #4610
    ID : 4610 (0x1202)
    Menu ID : 1 (0x1)
    Format : PGS
    Codec ID : 144
    Language : English
  Text #4611
    ID : 4611 (0x1203)
    Menu ID : 1 (0x1)
    Format : PGS
    Codec ID : 144
    Language : French
  Text #4612
    ID : 4612 (0x1204)
    Menu ID : 1 (0x1)
    Format : PGS
    Codec ID : 144
    Language : Spanish
  Text #4613
    ID : 4613 (0x1205)
    Menu ID : 1 (0x1)
    Format : PGS
    Codec ID : 144
    Language : Portuguese
  Text #4614
    ID : 4614 (0x1206)
    Menu ID : 1 (0x1)
    Format : PGS
    Codec ID : 144
    Language : Indonesian
  Text #4615
    ID : 4615 (0x1207)
    Menu ID : 1 (0x1)
    Format : PGS
    Codec ID : 144
    Language : Korean
  Text #4616
    ID : 4616 (0x1208)
    Menu ID : 1 (0x1)
    Format : PGS
    Codec ID : 144
    Language : Thai
  Text #4617
    ID : 4617 (0x1209)
    Menu ID : 1 (0x1)
    Format : PGS
    Codec ID : 144
    Delay relative to video : 3s 587ms
    Language : Spanish
  Text #4618
    ID : 4618 (0x120A)
    Menu ID : 1 (0x1)
    Format : PGS
    Codec ID : 144
    Delay relative to video : 3s 587ms
    Language : Portuguese

  评论这张
 
阅读(98)| 评论(0)
推荐 转载

历史上的今天

在LOFTER的更多文章

评论

<#--最新日志,群博日志--> <#--推荐日志--> <#--引用记录--> <#--博主推荐--> <#--随机阅读--> <#--首页推荐--> <#--历史上的今天--> <#--被推荐日志--> <#--上一篇,下一篇--> <#-- 热度 --> <#-- 网易新闻广告 --> <#--右边模块结构--> <#--评论模块结构--> <#--引用模块结构--> <#--博主发起的投票-->
 
 
 
 
 
 
 
 
 
 
 
 
 
 

页脚

网易公司版权所有 ©1997-2017