注册 登录  
 加关注
   显示下一条  |  关闭
温馨提示!由于新浪微博认证机制调整,您的新浪微博帐号绑定已过期,请重新绑定!立即重新绑定新浪微博》  |  关闭

逆风飞翔的鸟

追逐风中散落的默契~

 
 
 

日志

 
 
关于我

曾经迷惑于一份距离 曾经感动于一个传说 …… 在仆仆风中 我伸手 抓住你我的缘分 …… “傻傻”的你 能闻到风中 你我的默契吗?!

网易考拉推荐

【幻想】Phenomenon.1996.不一样的奇迹  

2012-08-13 08:47:29|  分类: 幻想 |  标签: |举报 |字号 订阅

  下载LOFTER 我的照片书  |
【幻想】Phenomenon.1996.不一样的奇迹 - 归鸿 - 逆风飞翔的鸟

◎译   名 不一样的本能/第三类奇迹/不一样的奇迹
◎片   名 Phenomenon
◎年   代 1996
◎国   家 美国
◎类   别 剧情/爱情/奇幻
◎IMDB链接 http://www.imdb.com/title/tt0117333/
◎语   言 国英双语
◎片   长 123 mins 35 seconds
◎导   演 乔·德特杜巴 Jon Turteltaub
◎主   演 约翰·特拉沃塔 John Travolta  ....George Malley
       凯拉·塞吉维克 Kyra Sedgwick  ....Lace Pennamin
       福里斯特·惠特克 Forest Whitaker  ....Nate Pope
       罗伯特·杜瓦尔 Robert Duvall  ....Doc Brunder
       Brent Spiner  ....Dr. Bob Niedorf
       Jeffrey DeMunn  ....Prof. John Ringold
       Richard Kiley  ....Dr. Wellin
       维托·鲁吉尼斯 Vyto Ruginis  ....Ted Rhome
       Bruce A. Young  ....FBI Agent Jack Hatch (as Bruce Young)
       Michael Milhoan  ....Jimmy
       Sean O'Bryan  ....Banes
       大卫·加拉赫 David Gallagher  ....Al Pennamin
       Ashley Buccille  ....Glory Pennamin
       Tony Genaro  ....Tito
       Troy Evans  ....Roger
       Elisabeth Nunziato  ....Ella
       Ellen Geer  ....Bonnie
       詹姆斯·基恩 James Keane  ....Pete
       Susan Merson  ....Nurse
       James Anthony Cotton  ....Cal, Hospital Orderly (as James Cotton)
       Justin DiPego  ....UFO Man
       Mark Soper  ....KCUD-TV Reporter
       Daniel Zacapa  ....Father at Book Fair
       Cab Covay  ....Book Fair Heckler
       Tony A. Mattos  ....Ella's Father
       Mark Valim  ....Alberto
       Carl D. Parker  ....Man in the Orchard (as Carl Parker)
       Beth Kennedy  ....FBI Agent
       Tom Fridley  ....FBI Agent
       Richard Gross  ....Customer at Malley's
       Jack Chouchanian  ....MRI Technician
       Michael Forner  ....Charlie Shipper
       Sage Callaway  ....Female Officer
       Jewel Benedict  ....Townswoman (May)
       Betsy Berryhill  ....Townswoman (at bar)
       Mariann V. Carothers  ....Townswoman (furniture store owner)
       Claudia Crespin  ....Townswoman (in crowd)
       Joseph A. Nicosia  ....Townsman (man #2 at bar)
       Dan Partain  ....Townsman (man #3 at bar)
       Isaac Reiswig  ....Townsman (in crowd)
       Joseph Amey  ....Book fair spectator (uncredited)
       Scott Bowe  ....Townsman (in crowd) (uncredited)
       Noah Michael Levine  ....FBI Agent (uncredited)
       Anni Long  ....Maj. Benz (uncredited)
        Will Prater  ....Helicopter Pilot (uncredited)
       Anthony Snow  ....Interrogation Recorder (uncredited)
       Sandy Stoltz  ....Duck Carnie (uncredited)
       Eric Tignini  ....Agent (uncredited)
       Derek Zemrak  ....FBI Investigator (uncredited)
 
 
◎简   介
 
  小镇的汽车工程师乔治·马利George Malley(约翰·特拉沃塔 John Travolta  饰)是一个随和的人,人缘极佳,但自从在他37岁生日那天晚上被一束来历不明的强光击中后,他的人生完全改变了。乔治George变得学习欲望极强而且过目不忘,他能在数分钟内学会葡萄牙语,甚至能以意念移动物件和预报地震。因其不可思议的能力,小镇的居民纷纷排斥疏远乔治George,乔治George陷入苦闷中。只有善良的单身母亲蕾丝Lace(凯拉·塞吉维克 Kyra Sedgwick  饰)始终陪伴着他度过难关,两人渐生情愫。乔治George以自己的特殊能力帮助身边的人,并感到十分欣慰,与此同时,乔治George的名声渐渐传开,包括FBI警探和科学家都慕名而来,而乔治George却因为过度使用超能力,渐渐油尽灯枯……
 

◎幕后/花絮
 
·约翰·特拉沃塔John Travolta饰演本片超人式的主人公可算中规中矩,但本片剧本新意欠奉。类似的题材早在60年代已经被挖掘过。
 
·但单就这部电影来看,故事紧凑,节奏适中,人物塑造有血有肉,探讨了人性的多个方面,是一部温情的电影。
 
·值得一提的是这部电影的音乐,非常有美国乡村的风格,而且与电影搭配的很好,值得一听。

 

  General #1
    ID : 1 (0x1)
    Complete name : 00000.m2ts
    Format : BDAV
    Format/Info : Blu-ray Video
    File size : 27.9 GiB
    Duration : 2h 3mn
    Overall bit rate mode : Variable
    Overall bit rate : 32.3 Mbps
    Maximum Overall bit rate : 35.5 Mbps
  Video #4113
    ID : 4113 (0x1011)
    Menu ID : 1 (0x1)
    Format : AVC
    Format/Info : Advanced Video Codec
    Format profile : High@L4.1
    Format settings, CABAC : Yes
    Format settings, ReFrames : 4 frames
    Codec ID : 27
    Duration : 2h 3mn
    Bit rate mode : Variable
    Bit rate : 29.5 Mbps
    Maximum bit rate : 34.0 Mbps
    Width : 1 920 pixels
    Height : 1 080 pixels
    Display aspect ratio : 16:9
    Frame rate : 23.976 fps
    Color space : YUV
    Chroma subsampling : 4:2:0
    Bit depth : 8 bits
    Scan type : Progressive
    Bits/(Pixel*Frame) : 0.594
    Stream size : 25.4 GiB (91%)
  Audio #4352
    ID : 4352 (0x1100)
    Menu ID : 1 (0x1)
    Format : DTS
    Format/Info : Digital Theater Systems
    Muxing mode : Stream extension
    Codec ID : 134
    Duration : 2h 3mn
    Bit rate mode : Constant
    Bit rate : 1 510 Kbps
    Channel(s) : 6 channels
    Channel positions : Front: L C R, Side: L R, LFE
    Sampling rate : 48.0 KHz
    Bit depth : 24 bits
    Compression mode : Lossy
    Stream size : 1.30 GiB (5%)
    Language : English
  Text #4608
    ID : 4608 (0x1200)
    Menu ID : 1 (0x1)
    Format : PGS
    Codec ID : 144
    Language : Chinese
  Text #4609
    ID : 4609 (0x1201)
    Menu ID : 1 (0x1)
    Format : PGS
    Codec ID : 144
    Language : Chinese
  Text #4610
    ID : 4610 (0x1202)
    Menu ID : 1 (0x1)
    Format : PGS
    Codec ID : 144
    Language : English
  Text #4611
    ID : 4611 (0x1203)
    Menu ID : 1 (0x1)
    Format : PGS
    Codec ID : 144
    Language : French
  Text #4612
    ID : 4612 (0x1204)
    Menu ID : 1 (0x1)
    Format : PGS
    Codec ID : 144
    Language : Spanish
  Text #4613
    ID : 4613 (0x1205)
    Menu ID : 1 (0x1)
    Format : PGS
    Codec ID : 144
    Language : French
  Text #4614
    ID : 4614 (0x1206)
    Menu ID : 1 (0x1)
    Format : PGS
    Codec ID : 144
    Language : Spanish

  评论这张
 
阅读(117)| 评论(0)
推荐 转载

历史上的今天

在LOFTER的更多文章

评论

<#--最新日志,群博日志--> <#--推荐日志--> <#--引用记录--> <#--博主推荐--> <#--随机阅读--> <#--首页推荐--> <#--历史上的今天--> <#--被推荐日志--> <#--上一篇,下一篇--> <#-- 热度 --> <#-- 网易新闻广告 --> <#--右边模块结构--> <#--评论模块结构--> <#--引用模块结构--> <#--博主发起的投票-->
 
 
 
 
 
 
 
 
 
 
 
 
 
 

页脚

网易公司版权所有 ©1997-2017