注册 登录  
 加关注
   显示下一条  |  关闭
温馨提示!由于新浪微博认证机制调整,您的新浪微博帐号绑定已过期,请重新绑定!立即重新绑定新浪微博》  |  关闭

逆风飞翔的鸟

追逐风中散落的默契~

 
 
 

日志

 
 
关于我

曾经迷惑于一份距离 曾经感动于一个传说 …… 在仆仆风中 我伸手 抓住你我的缘分 …… “傻傻”的你 能闻到风中 你我的默契吗?!

网易考拉推荐

【动作】Out.for.Justice.1991.法外出击  

2012-08-13 08:45:18|  分类: 动作 |  标签: |举报 |字号 订阅

  下载LOFTER 我的照片书  |
【动作】Out.for.Justice.1991.法外出击 - 归鸿 - 逆风飞翔的鸟

◎译  名 法外出击
◎别  名  为了正义/边缘煞星
◎片  名 Out For Justice
◎年  代 1991 年
◎国  家 美国
◎类  别 动作/惊悚/犯罪/剧情
◎语  言 英语
◎IMDB链接  http://www.imdb.com/title/tt102614/
◎片  长 91 MiN
◎导  演 约翰·弗林 John Flynn
◎主  演 吉娜·葛森 Gina Gershon .... Patti Madano
       史蒂文·西格尔 Steven Seagal .... Detective Gino Felino Tactical Narcotics Team NYPD
       约翰·雷吉扎默 John Leguizamo .... Boy in Alley
       朱丽安娜·麦吉利斯 Julianna Margulies .... Rica
       威廉·弗西斯 William Forsythe .... Richie Madano
       杰瑞·奥巴赫 Jerry Orbach .... Capt. Ronnie Donziger Homicide Division NYPD
       朱莉·斯特兰 Julie Strain .... Roxanne Ford
       Athena Massey .... Victim (uncredited)
       Jo Champa .... Vicky Felino
       Jay Acovone .... Bobby Arms
       Afifi Alaouie .... Go-Go 3eDancer
       Sandy Allison .... Transvestite
       Jerome Alvarado .... Frankie's Guys
       Erin Ashley .... Hooker
       David Basulto .... Frankie's Guys
       Christina Solis ....Elena
       Sonny Hurst ....Tattoos
       Dan Inosanto ....Sticks
       Michael Pecina ....Phone Booth Man
       Marie Todd ....Sammy's Girlfriend
       Nick Dimitri ....Bartender
       Afifi Alaouie ....Go-Go Dancer (as Afifi)
       Cameron ....Go Go Dance
       Erin Ashley ....Hooker (as Erin Weidner Ashley)
       Sandy Hernandez ....Hooker
       Meadow Spadafino ....Hooker
       Jorge Gil ....Chas the Chair
       Craig Pinkard ....Chop Chop Foreman
       Perry Wayne ....Bouncer
       Jack Vecchio ....Club Bodyguard
       Charles Guardino ....Waiter
       香侬·惠利 Shannon Whirry ....Terry Malloy
 
 
◎简  介 
 
    这是一场正义与邪恶的斗争,为了严惩凶手他不惜一切……史蒂芬·西格带来一部动作猛片。
 
  故事发生在现在的布鲁克林,警察吉诺(西格饰)出生在这里并在这儿长大,他目睹了这里一切的变化,但是,有一点是他无法容忍的。吉诺少年时斯的死对头李奇选择了一条和他相反的道路,把整个街区变成了杀戮战场,他象一只挡不住的疯狗,到处杀人,并当街杀死了吉诺的好友,吉诺愤怒无比,决定不惜任何代价将李奇绳之于法,于是一场惊心动魄的追捕展开了。

 

  General #1
    ID : 1 (0x1)
    Complete name : 00000.m2ts
    Format : BDAV
    Format/Info : Blu-ray Video
    File size : 10.5 GiB
    Duration : 1h 31mn
    Overall bit rate : 16.4 Mbps
    Maximum Overall bit rate : 35.5 Mbps
  Video #4113
    ID : 4113 (0x1011)
    Menu ID : 1 (0x1)
    Format : VC-1
    Format profile : Advanced@L3
    Codec ID : 234
    Duration : 1h 31mn
    Bit rate : 15.1 Mbps
    Width : 1 920 pixels
    Height : 1 080 pixels
    Display aspect ratio : 16:9
    Frame rate : 23.976 fps
    Chroma subsampling : 4:2:0
    Bit depth : 8 bits
    Scan type : Progressive
    Compression mode : Lossy
    Bits/(Pixel*Frame) : 0.304
    Stream size : 9.64 GiB (92%)
  Audio #4352
    ID : 4352 (0x1100)
    Menu ID : 1 (0x1)
    Format : AC-3
    Format/Info : Audio Coding 3
    Codec ID : 129
    Duration : 1s 504ms
    Bit rate : 640 Kbps
    Channel(s) : 5 channels
    Sampling rate : 48.0 KHz
    Compression mode : Lossy
    Stream size : 118 KiB (0%)
    Language : English
  Text #4608
    ID : 4608 (0x1200)
    Menu ID : 1 (0x1)
    Format : PGS
    Codec ID : 144
    Delay relative to video : 15s 724ms
    Language : Chinese
  Text #4609
    ID : 4609 (0x1201)
    Menu ID : 1 (0x1)
    Format : PGS
    Codec ID : 144
    Delay relative to video : 15s 766ms
    Language : Chinese
  Text #4610
    ID : 4610 (0x1202)
    Menu ID : 1 (0x1)
    Format : PGS
    Codec ID : 144
    Language : English
  Text #4611
    ID : 4611 (0x1203)
    Menu ID : 1 (0x1)
    Format : PGS
    Codec ID : 144
    Language : English
  Text #4612
    ID : 4612 (0x1204)
    Menu ID : 1 (0x1)
    Format : PGS
    Codec ID : 144
    Delay relative to video : 15s 891ms
    Language : French
  Text #4613
    ID : 4613 (0x1205)
    Menu ID : 1 (0x1)
    Format : PGS
    Codec ID : 144
    Delay relative to video : 15s 933ms
    Language : Spanish

  评论这张
 
阅读(165)| 评论(0)
推荐 转载

历史上的今天

在LOFTER的更多文章

评论

<#--最新日志,群博日志--> <#--推荐日志--> <#--引用记录--> <#--博主推荐--> <#--随机阅读--> <#--首页推荐--> <#--历史上的今天--> <#--被推荐日志--> <#--上一篇,下一篇--> <#-- 热度 --> <#-- 网易新闻广告 --> <#--右边模块结构--> <#--评论模块结构--> <#--引用模块结构--> <#--博主发起的投票-->
 
 
 
 
 
 
 
 
 
 
 
 
 
 

页脚

网易公司版权所有 ©1997-2017