注册 登录  
 加关注
   显示下一条  |  关闭
温馨提示!由于新浪微博认证机制调整,您的新浪微博帐号绑定已过期,请重新绑定!立即重新绑定新浪微博》  |  关闭

逆风飞翔的鸟

追逐风中散落的默契~

 
 
 

日志

 
 
关于我

曾经迷惑于一份距离 曾经感动于一个传说 …… 在仆仆风中 我伸手 抓住你我的缘分 …… “傻傻”的你 能闻到风中 你我的默契吗?!

网易考拉推荐

【动作】The.Round.Up.2010.围捕  

2012-08-13 20:04:00|  分类: 动作 |  标签: |举报 |字号 订阅

  下载LOFTER 我的照片书  |
【动作】The.Round.Up.2010.围捕 - 归鸿 - 逆风飞翔的鸟

◎译  名 围捕
◎片  名 La rafle
◎年  代 2010
◎国  家 法国
◎类  别 剧情
◎语  言 法语
◎字  幕 中文
◎IMDB链接  http://www.imdb.com/title/tt1382725/
◎片  长 120 Mins
◎导  演 罗丝琳·伯胥 Roselyne Bosch
◎主  演 让·雷诺 Jean Reno ….Dr. Sheinbaum
       梅拉尼·罗兰 Melanie Laurent ….Annette
       塞缪尔·勒·比汉 Samuel Le Bihan ….Capitaine Pierret
       加德·艾尔马莱 Gad Elmaleh ….Schmuel Weisman
       西尔薇·泰斯图德 Sylvie Testud ….Bella Zygler
       安妮·波诺什 Anne Brochet ….Dina Traube
       卡特琳娜·阿莱格雷 Catherine Allégret ….Concierge Tati
 
◎简  介
 
    1942年,约瑟夫11岁。这个六坦月的清晨,签他本该上学去,一颗黄色的星星缝在他的胸膛上……
   他得到邻居旧货商的鼓励和一个面包师傅的嘲讽。
   在善意和轻蔑之间,约瑟夫、他的犹太小伙伴和他的家人在被占领区巴黎学习生活。在蒙马特高地,他们找到了庇护。
   让他们没有料到的是,到1942年7月16日这天早上,他们脆弱的幸福也失去了根基……
   在埃菲尔铁塔附近的冬季自行车赛车场里,一万三千人被塞在一起,准备运往波纳?拉?罗兰德集中营。从维希到伯格霍夫(希特勒在巴伐利亚山中的寓所),《围捕》将跟随这些受害者和侩子手的真实命运。
   那些发动战争的。
   那些怀揣信心的。
   那些逃亡的。
   那些彼此对抗的。
   电影中所有的人物都真实存在。
   所有的事件,甚至那些最极端离谱的,都发生在1942年的这个夏天。

 

  General #1
    ID : 1 (0x1)
    Complete name : 00000.m2ts
    Format : BDAV
    Format/Info : Blu-ray Video
    File size : 16.2 GiB
    Duration : 2h 5mn
    Overall bit rate mode : Variable
    Overall bit rate : 18.5 Mbps
    Maximum Overall bit rate : 35.5 Mbps
  Video #4113
    ID : 4113 (0x1011)
    Menu ID : 1 (0x1)
    Format : AVC
    Format/Info : Advanced Video Codec
    Format profile : High@L4.1
    Format settings, CABAC : Yes
    Format settings, ReFrames : 4 frames
    Format settings, GOP : M=3, N=18
    Codec ID : 27
    Duration : 2h 5mn
    Bit rate mode : Variable
    Bit rate : 16.2 Mbps
    Maximum bit rate : 35.0 Mbps
    Width : 1 920 pixels
    Height : 1 080 pixels
    Display aspect ratio : 16:9
    Frame rate : 23.976 fps
    Standard : NTSC
    Color space : YUV
    Chroma subsampling : 4:2:0
    Bit depth : 8 bits
    Scan type : Progressive
    Bits/(Pixel*Frame) : 0.326
    Stream size : 14.2 GiB (88%)
    Color primaries : BT.709-5, BT.1361, IEC 61966-2-4, SMPTE RP177
    Transfer characteristics : BT.709-5, BT.1361
    Matrix coefficients : BT.709-5, BT.1361, IEC 61966-2-4 709, SMPTE RP177
  Audio #4352
    ID : 4352 (0x1100)
    Menu ID : 1 (0x1)
    Format : DTS
    Format/Info : Digital Theater Systems
    Muxing mode : Stream extension
    Codec ID : 134
    Duration : 2h 4mn
    Bit rate mode : Constant
    Bit rate : 1 510 Kbps
    Channel(s) : 6 channels
    Channel positions : Front: L C R, Side: L R, LFE
    Sampling rate : 48.0 KHz
    Bit depth : 16 bits
    Compression mode : Lossy
    Stream size : 1.32 GiB (8%)
    Language : French
  Text #4608
    ID : 4608 (0x1200)
    Menu ID : 1 (0x1)
    Format : PGS
    Codec ID : 144
    Language : Chinese
  Text #4609
    ID : 4609 (0x1201)
    Menu ID : 1 (0x1)
    Format : PGS
    Codec ID : 144
    Language : Chinese
  Text #4610
    ID : 4610 (0x1202)
    Menu ID : 1 (0x1)
    Format : PGS
    Codec ID : 144
    Language : English

  评论这张
 
阅读(116)| 评论(0)
推荐 转载

历史上的今天

在LOFTER的更多文章

评论

<#--最新日志,群博日志--> <#--推荐日志--> <#--引用记录--> <#--博主推荐--> <#--随机阅读--> <#--首页推荐--> <#--历史上的今天--> <#--被推荐日志--> <#--上一篇,下一篇--> <#-- 热度 --> <#-- 网易新闻广告 --> <#--右边模块结构--> <#--评论模块结构--> <#--引用模块结构--> <#--博主发起的投票-->
 
 
 
 
 
 
 
 
 
 
 
 
 
 

页脚

网易公司版权所有 ©1997-2017