注册 登录  
 加关注
   显示下一条  |  关闭
温馨提示!由于新浪微博认证机制调整,您的新浪微博帐号绑定已过期,请重新绑定!立即重新绑定新浪微博》  |  关闭

逆风飞翔的鸟

追逐风中散落的默契~

 
 
 

日志

 
 
关于我

曾经迷惑于一份距离 曾经感动于一个传说 …… 在仆仆风中 我伸手 抓住你我的缘分 …… “傻傻”的你 能闻到风中 你我的默契吗?!

网易考拉推荐

【动作】The.Army.Of.Crime.2009.罪恶部队  

2012-08-13 20:36:44|  分类: 动作 |  标签: |举报 |字号 订阅

  下载LOFTER 我的照片书  |
【动作】The.Army.Of.Crime.2009.罪恶部队 - 归鸿 - 逆风飞翔的鸟

◎中 文 名 罪恶部队/罪恶的军队
◎英 文 名 The Army of Crime
◎原  名 L'armée du crime
◎年  代 2009
◎国  家 法国
◎类  别 剧情/战争/历史
◎片  长 139 min
◎制作公司 Agat Films & Cie [法国]
      法国第4电视台 [法国] (co-production)
       France 3 Cinéma [法国] (co-production)
       Ciné Cinémas [法国]
◎发行公司 Studio Canal [法国] (2009) (France) (theatrical)
◎官方网站 http://www.larmeeducrime-lefilm.com/
◎预 告 片 http://www.mtime.com/movie/85134/trailer/19105.html
◎导  演 罗伯特·格迪基扬 Robert Guédiguian
◎主  演 维吉妮·拉朵嫣 Virginie Ledoyen....Mélinée Manouchian
       西蒙·阿布卡瑞安 Simon Abkarian....Missak Manouchian
       罗班松·斯特伏南 Robinson Stévenin....Marcel Rayman
       让-皮埃尔·达鲁山 Jean-Pierre Darroussin....Inspecteur Pujol
       罗拉·奈马克 Lola Naymark....Monique
       阿丽亚娜·阿斯卡里德 Ariane Ascaride....Madame Elek
       格雷戈瓦·勒普兰斯-林盖 Grégoire Leprince-Ringuet....Thomas Elek
       Yann Trégou?t ....Le Commissaire David
       Ivan Franek ....Feri Boczov
       Olga Legrand ....Olga Bancic
       安德雷昂·祖利维 Adrien Jolivet....Henri Krasucki
       Gérard Meylan ....Inspecteur Mathelin
       Patrick Bonnel ....Monsieur Elek
       Boris Bergman ....Monsieur Rayman
 

◎简  介 
 
    巴黎被德国占领后,一群年轻的法国移民,他们不甘心被纳粹统治,于是他们决心解放法国。他们冒着生命危险与德国人进行斗争,在巴黎他们是英雄。
 
    1944年2月,22名男子和一名女子被判处死刑。这些法国移民成为法国最凄美的传说。
 
花絮
 
·本片是第62届戛纳电影节的非竞赛展映片。
 


  General #1
    ID : 1 (0x1)
    Complete name : 00000.m2ts
    Format : BDAV
    Format/Info : Blu-ray Video
    File size : 16.3 GiB
    Duration : 2h 18mn
    Overall bit rate : 16.9 Mbps
    Maximum Overall bit rate : 35.5 Mbps
  Video #4113
    ID : 4113 (0x1011)
    Menu ID : 1 (0x1)
    Format : AVC
    Format/Info : Advanced Video Codec
    Format profile : High@L4.1
    Format settings, CABAC : No
    Format settings, ReFrames : 2 frames
    Codec ID : 27
    Duration : 2h 18mn
    Bit rate mode : Constant
    Bit rate : 13.5 Mbps
    Width : 1 920 pixels
    Height : 1 080 pixels
    Display aspect ratio : 16:9
    Frame rate : 24.000 fps
    Color space : YUV
    Chroma subsampling : 4:2:0
    Bit depth : 8 bits
    Scan type : Progressive
    Bits/(Pixel*Frame) : 0.271
    Stream size : 13.5 GiB (82%)
    Color primaries : BT.709-5, BT.1361, IEC 61966-2-4, SMPTE RP177
    Transfer characteristics : BT.709-5, BT.1361
    Matrix coefficients : BT.709-5, BT.1361, IEC 61966-2-4 709, SMPTE RP177
  Audio #4352
    ID : 4352 (0x1100)
    Menu ID : 1 (0x1)
    Format : DTS
    Format/Info : Digital Theater Systems
    Muxing mode : Stream extension
    Codec ID : 134
    Duration : 2h 18mn
    Bit rate mode : Constant
    Bit rate : 2 278 Kbps / 1 510 Kbps
    Channel(s) : 6 channels
    Channel positions : Front: L C R, Side: L R, LFE
    Sampling rate : 48.0 KHz
    Bit depth : 16 bits
    Compression mode : Lossy
    Stream size : 2.20 GiB (13%)
    Language : French
  Text #4608
    ID : 4608 (0x1200)
    Menu ID : 1 (0x1)
    Format : PGS
    Codec ID : 144
    Delay relative to video : 14s 792ms
    Language : Chinese
  Text #4609
    ID : 4609 (0x1201)
    Menu ID : 1 (0x1)
    Format : PGS
    Codec ID : 144
    Delay relative to video : 14s 792ms
    Language : Chinese
  Text #4610
    ID : 4610 (0x1202)
    Menu ID : 1 (0x1)
    Format : PGS
    Codec ID : 144
    Language : English

  评论这张
 
阅读(162)| 评论(0)
推荐 转载

历史上的今天

在LOFTER的更多文章

评论

<#--最新日志,群博日志--> <#--推荐日志--> <#--引用记录--> <#--博主推荐--> <#--随机阅读--> <#--首页推荐--> <#--历史上的今天--> <#--被推荐日志--> <#--上一篇,下一篇--> <#-- 热度 --> <#-- 网易新闻广告 --> <#--右边模块结构--> <#--评论模块结构--> <#--引用模块结构--> <#--博主发起的投票-->
 
 
 
 
 
 
 
 
 
 
 
 
 
 

页脚

网易公司版权所有 ©1997-2017