注册 登录  
 加关注
查看详情
   显示下一条  |  关闭
温馨提示!由于新浪微博认证机制调整,您的新浪微博帐号绑定已过期,请重新绑定!立即重新绑定新浪微博》  |  关闭

逆风飞翔的鸟

追逐风中散落的默契~

 
 
 

日志

 
 
关于我

曾经迷惑于一份距离 曾经感动于一个传说 …… 在仆仆风中 我伸手 抓住你我的缘分 …… “傻傻”的你 能闻到风中 你我的默契吗?!

【动作】Meeting.Evil.2012.遇见恶魔  

2012-08-13 08:36:31|  分类: 动作 |  标签: |举报 |字号 订阅

  下载LOFTER 我的照片书  |
【动作】Meeting.Evil.2012.遇见恶魔 - 归鸿 - 逆风飞翔的鸟

◎译   名 遇见恶魔/见见恶魔
◎片   名 Meeting Evil
◎年   代 2012
◎国   家 美国
◎类   别 犯罪/剧情/神秘/惊悚
◎IMDB链接 http://www.imdb.com/title/tt1810697/
◎语   言 英语
◎字   幕 中文
◎片   长 88 mins 59 seconds  
◎导   演 克里斯·费舍 Chris Fisher
◎主   演 塞缪尔·杰克逊 Samuel L. Jackson  ....Richie
       卢克·威尔逊 Luke Wilson  ....John
       莱丝莉·比伯 Leslie Bibb  ....Joanie
       翠茜·索姆斯 Tracie Thoms  ....Latisha Rogers
       佩顿·利斯特 Peyton List  ....Tammy
       瑞恩·李 Ryan Lee  ....Scooter
       缪斯·沃森 Muse Watson  ....Frank
       J.D. Evermore
       Jillian Batherson  ....Charlene
       Jason Alan Smith  ....Trevor
       Ritchie Montgomery
       詹姆斯·罗林斯 James Rawlings  ....Drunken Patron
       Tina Parker  ....Rhonda
       Elton LeBlanc  ....Policeman
       John C. Klein  ....Orly County Deputy
       Danny Epper  ....Redneck Trucker
       Laura Flannery  ....Waitress (as Bartender)
       Kylie Creppel  ....Little Girl in Stationwagon
       Dustan Costine  ....Highway Patrol #2
       Samantha Sitzman  ....Marilyn
       Edward J. Clare  ....Sheriff Moore
       Jimmy Townsend  ....Cop #1
       Avi Lake  ....Little Girl W / Dog
       Danny Hanemann  ....Bartender
       Gabrielle Harvey  ....Sam Felton
       Samantha Sitzman  ....Marilyn
       Sam Robbins  ....John Jr.
 

◎简   介 
 
  约翰是一个商人,有个漂亮的妻子,一对可爱的儿女。但是他最近的生活却并不顺利,丢掉了工作之后,他的那栋豪宅也要被银行收回。一天,一个带着礼帽的黑人找上门来,说自己的车坏了,希望能得到一点帮助。
 
  瑞奇是一个杀手,因为在约翰帮助他推车的时候,有个孩子在现场,所以他并没有下手。而是把约翰带上了车,开始了一整天莫名其妙的旅程。在接连杀死农户一家、小卖店老板和几位警察之后,瑞奇还是没有对约翰下手。到了晚上,约翰经历了重重危险回到家中,本以为能放松安全地睡上一觉,但是瑞奇也神不知鬼不觉地到了他的家中。
 
  在晚餐桌上,瑞奇说是约翰的妻子雇自己来杀他的,但是瑞奇一时手软,没有下手。一番争执之后,瑞奇被警方击毙,而约翰也终于和自己的老婆躺在了床上。但是,黑暗中却又一次响起了瑞奇杀人时常吹的口哨曲--这究竟是怎么一回事?
 

◎一句话评论
 
导演克里斯·费舍尔对手上的素材用力过猛,把这部电影搞成了四不像。
 --Slant Magazine
 
在面对这个题材的时候,克里斯·费舍尔似乎找不到北了。他把所有素材都加载到了电影之中。最后,这部电影变成了一个怪胎。
 --综艺杂志
 

◎幕后制作
 
  这部惊悚片讲述了一个令人错愕和惊异的故事,在这个故事中,有不贞的妻子、有一位很有背景的丈夫以及一个令人捉摸不定的杀手。对于这样的一部电影,导演克里斯·费舍尔说:“影片所要表达的就是一种知人不知心的生存状态,每个人都有自己的秘密,都是有自己的目的和目标的。所以,我们没有办法用一种代入的视角去关注他人的生活。影片有一个开放性的结尾,在这个结尾中,几乎没有人知道发生了什么;但与此同时,所有人都又明白了些什么。尤其是影片的主角约翰,在这个结尾里,他明白了自己为什么要遭到谋杀和设计,明白了自己的妻子究竟是一个怎么样的人。简而言之,我很喜欢这个结尾,这也是影片的点睛之笔。”
 
  作为已经出道十年的导演,克里斯·费舍尔名下并没有什么名作出现。不过,因为自己的好人缘以及在圈内的口碑,这部投资不大、布景简单的影片也吸引到了塞缪尔·杰克逊和卢克·威尔逊这样级别的演员加盟。这使得这部并不算精彩的影片在演员阵容上充满了看点。费舍尔说:“在这部电影里,我最喜欢的两个角色是那两个戏份不多,但是充满了味道的女性,一个是约翰的妻子,另一个则是女警官。为了和这两个非凡的女性配戏,我找来了萨缪尔和卢克,因为我觉得不同的肤色和不同的气质,会对影片产生一些积极的影响,会让这些角色之间的联系和互动加强,而不是减弱。其实,约翰在这部影片中,是一个反英雄的角色。我觉得,如果人们了解了这一点,就会觉得整部影片豁然开朗了起来。我在影片中塑造的,仅仅是角色,而不是剧情,仅此而已。所以,对于这部电影,还是应该留给观众去解读。”
 

◎花絮
 
·影片改编自托马斯·贝格的同名小说,该小说出版于1992年。

 

  General #1
    ID : 1 (0x1)
    Complete name : 00000.m2ts
    Format : BDAV
    Format/Info : Blu-ray Video
    File size : 18.9 GiB
    Duration : 1h 28mn
    Overall bit rate mode : Variable
    Overall bit rate : 30.4 Mbps
    Maximum Overall bit rate : 35.5 Mbps
  Video #4113
    ID : 4113 (0x1011)
    Menu ID : 1 (0x1)
    Format : AVC
    Format/Info : Advanced Video Codec
    Format profile : High@L4.1
    Format settings, CABAC : Yes
    Format settings, ReFrames : 2 frames
    Codec ID : 27
    Duration : 1h 28mn
    Bit rate mode : Variable
    Bit rate : 27.7 Mbps
    Width : 1 920 pixels
    Height : 1 080 pixels
    Display aspect ratio : 16:9
    Frame rate : 23.976 fps
    Color space : YUV
    Chroma subsampling : 4:2:0
    Bit depth : 8 bits
    Scan type : Progressive
    Bits/(Pixel*Frame) : 0.556
    Stream size : 17.2 GiB (91%)
  Audio #4352
    ID : 4352 (0x1100)
    Menu ID : 1 (0x1)
    Format : DTS
    Format/Info : Digital Theater Systems
    Muxing mode : Stream extension
    Codec ID : 134
    Duration : 1h 28mn
    Bit rate mode : Constant
    Bit rate : 1 510 Kbps
    Channel(s) : 6 channels
    Channel positions : Front: L C R, Side: L R, LFE
    Sampling rate : 48.0 KHz
    Bit depth : 24 bits
    Compression mode : Lossy
    Stream size : 959 MiB (5%)
    Language : English
  Text #4608
    ID : 4608 (0x1200)
    Menu ID : 1 (0x1)
    Format : PGS
    Codec ID : 144
    Language : Chinese
  Text #4609
    ID : 4609 (0x1201)
    Menu ID : 1 (0x1)
    Format : PGS
    Codec ID : 144
    Language : Chinese
  Text #4610
    ID : 4610 (0x1202)
    Menu ID : 1 (0x1)
    Format : PGS
    Codec ID : 144
    Language : English
  Text #4611
    ID : 4611 (0x1203)
    Menu ID : 1 (0x1)
    Format : PGS
    Codec ID : 144
    Language : English

  评论这张
 
阅读(113)| 评论(0)
推荐 转载

历史上的今天

评论

<#--最新日志,群博日志--> <#--推荐日志--> <#--引用记录--> <#--博主推荐--> <#--随机阅读--> <#--首页推荐--> <#--历史上的今天--> <#--被推荐日志--> <#--上一篇,下一篇--> <#-- 热度 --> <#-- 网易新闻广告 --> <#--右边模块结构--> <#--评论模块结构--> <#--引用模块结构--> <#--博主发起的投票-->
 
 
 
 
 
 
 
 
 
 
 
 
 
 

页脚

网易公司版权所有 ©1997-2018