注册 登录  
 加关注
   显示下一条  |  关闭
温馨提示!由于新浪微博认证机制调整,您的新浪微博帐号绑定已过期,请重新绑定!立即重新绑定新浪微博》  |  关闭

逆风飞翔的鸟

追逐风中散落的默契~

 
 
 

日志

 
 
关于我

曾经迷惑于一份距离 曾经感动于一个传说 …… 在仆仆风中 我伸手 抓住你我的缘分 …… “傻傻”的你 能闻到风中 你我的默契吗?!

网易考拉推荐

【动作】Never.Surrender.2009.永不投降  

2012-08-13 20:24:28|  分类: 动作 |  标签: |举报 |字号 订阅

  下载LOFTER 我的照片书  |
【动作】Never.Surrender.2009.永不投降 - 归鸿 - 逆风飞翔的鸟

【影片原名】Never Surrender
【中文译名】永不投降
【出品公司】Destiny Entertainment Productions
【出品年代】2009 年
【上映日期】2009年4月28日 美国
【影片级别】USA:R
【官方网站】http://neversurrenderdvd.com/
【IMDB链接】http://www.imdb.com/title/tt1307989
【国    家】美国
【类    别】动作/剧情
【导    演】Hector Echavarria
【主    演】Hector Echavarria ....Diego Carter
          帕特里克·基尔帕特里克 Patrick Kilpatrick....Seifer
          James Russo ....Jimmy
          Silvia Koys ....Sandra
          Anderson Silva ....Fighter
          Georges St. Pierre ....Georges
          B.J. Penn
          Fileena Bahris ....Club Girl
          Joanne Bahris ....Lady at bar
          Carey A. Campbell ....Bookie
          Lateef Crowder ....Marco
          Will C. ....Body Guard
          Heath Herring ....Stone
          Fabiano Iha ....John
          昆顿·杰克逊 Quinton 'Rampage' Jackson


【内容简介】

    从拳台到荧幕,世界上最著名的拳击冠军们走到了一起共同出演第一部电影。一位冠军被一位神秘的资助人骗去参加了一个非法的地下拳击组织,他很快意识到唯一出去的出路就是杀人或被人杀。在这里,有些战斗是为了荣耀,有些战斗是为了战斗,而他的战斗是为了逃离这里,他不能回头,不能示弱,不能离开,绝不投降。。。

 

  General #1
    ID : 1 (0x1)
    Complete name : 00000.m2ts
    Format : BDAV
    Format/Info : Blu-ray Video
    File size : 15.3 GiB
    Duration : 1h 22mn
    Overall bit rate mode : Variable
    Overall bit rate : 26.5 Mbps
    Maximum Overall bit rate : 35.5 Mbps
  Video #4113
    ID : 4113 (0x1011)
    Menu ID : 1 (0x1)
    Format : AVC
    Format/Info : Advanced Video Codec
    Format profile : High@L4.1
    Format settings, CABAC : Yes
    Format settings, ReFrames : 4 frames
    Codec ID : 27
    Duration : 1h 22mn
    Bit rate mode : Variable
    Bit rate : 23.7 Mbps
    Maximum bit rate : 26.0 Mbps
    Width : 1 920 pixels
    Height : 1 080 pixels
    Display aspect ratio : 16:9
    Frame rate : 25.000 fps
    Standard : PAL
    Color space : YUV
    Chroma subsampling : 4:2:0
    Bit depth : 8 bits
    Scan type : MBAFF
    Bits/(Pixel*Frame) : 0.457
    Stream size : 13.7 GiB (89%)
    Color primaries : BT.709-5, BT.1361, IEC 61966-2-4, SMPTE RP177
    Transfer characteristics : BT.709-5, BT.1361
    Matrix coefficients : BT.709-5, BT.1361, IEC 61966-2-4 709, SMPTE RP177
  Audio #4352
    ID : 4352 (0x1100)
    Menu ID : 1 (0x1)
    Format : DTS
    Format/Info : Digital Theater Systems
    Muxing mode : Stream extension
    Codec ID : 134
    Duration : 1h 22mn
    Bit rate mode : Constant
    Bit rate : 1 510 Kbps
    Channel(s) : 6 channels
    Channel positions : Front: L C R, Side: L R, LFE
    Sampling rate : 48.0 KHz
    Bit depth : 24 bits
    Compression mode : Lossy
    Stream size : 891 MiB (6%)
    Language : German
  Audio #4353
    ID : 4353 (0x1101)
    Menu ID : 1 (0x1)
    Format : AC-3
    Format/Info : Audio Coding 3
    Codec ID : 129
    Duration : 1h 22mn
    Bit rate : 224 Kbps
    Channel(s) : 2 channels
    Sampling rate : 48.0 KHz
    Compression mode : Lossy
    Stream size : 132 MiB (1%)
    Language : English
  Text #4608
    ID : 4608 (0x1200)
    Menu ID : 1 (0x1)
    Format : PGS
    Codec ID : 144
    Language : Chinese
  Text #4609
    ID : 4609 (0x1201)
    Menu ID : 1 (0x1)
    Format : PGS
    Codec ID : 144
    Language : German

  评论这张
 
阅读(92)| 评论(0)
推荐 转载

历史上的今天

在LOFTER的更多文章

评论

<#--最新日志,群博日志--> <#--推荐日志--> <#--引用记录--> <#--博主推荐--> <#--随机阅读--> <#--首页推荐--> <#--历史上的今天--> <#--被推荐日志--> <#--上一篇,下一篇--> <#-- 热度 --> <#-- 网易新闻广告 --> <#--右边模块结构--> <#--评论模块结构--> <#--引用模块结构--> <#--博主发起的投票-->
 
 
 
 
 
 
 
 
 
 
 
 
 
 

页脚

网易公司版权所有 ©1997-2017