注册 登录  
 加关注
   显示下一条  |  关闭
温馨提示!由于新浪微博认证机制调整,您的新浪微博帐号绑定已过期,请重新绑定!立即重新绑定新浪微博》  |  关闭

逆风飞翔的鸟

追逐风中散落的默契~

 
 
 

日志

 
 
关于我

曾经迷惑于一份距离 曾经感动于一个传说 …… 在仆仆风中 我伸手 抓住你我的缘分 …… “傻傻”的你 能闻到风中 你我的默契吗?!

网易考拉推荐

【动作】Tsar.2009.沙皇  

2012-08-13 19:54:17|  分类: 动作 |  标签: |举报 |字号 订阅

  下载LOFTER 我的照片书  |
【动作】Tsar.2009.沙皇 - 归鸿 - 逆风飞翔的鸟

【影片原名】Tsar
【中文名称】沙皇/皇帝/伊凡大帝
【影片类型】剧情/历史
【影片时长】123分钟
【国  家】俄罗斯
【出品年代】2009
【上映日期】2009年11月4日
【语    言】俄语
【字    幕】中文
【IMDB链接】http://www.imdb.com/title/tt1424431/
【导  演】帕维·龙根 Pavel Lungin
【主要演员】彼得·马莫诺夫 Pyotr Mamonov ... Ivan The Terrible
       奥列格·扬科夫斯基 Oleg Yankovskiy ... Metropolitanate Philipp
       Ramilya Iskander ... Mariya Temryukovna
       Anastasiya Dontsova ... Masha
       Aleksandr Domogarov ... Aleksei Basmanov
       Aleksandr Ilyin ... Fedka Basmanov
       Ville Haapasalo ... Heinrich Staden (as Ville Khaapasalo)
       Aleksei Frandetti ... Kai-Bulat
       Ivan Okhlobystin ... Vassian
       Yuri Kuznetsov ... Malyuta Skuratov
       Aleksei Makarov ... General Kolychev
 

【内容简介】
    
    本片以俄国历史上首任沙皇伊凡四世为主人公,讲述了16世纪的俄罗斯,他以残暴的手段统治全国,最终反对他的那个人却是他童年时的挚友;影片着重刻画了伊凡四世的内心世界。
 
    伊凡四世在俄罗斯历史上有着深远影响,关于他的神话传说在俄罗斯多得不胜枚举,至今还在广为流传,他的故事也多次被搬上大银幕。电影《沙皇》由俄罗斯著名导演帕维·龙根执导,今年5月曾入选第62届戛纳电影节“一种关注”单元,随后还曾参加了波兰华沙电影节、莫斯科电影节等,获得高度评价。
 
    出生于1949年的俄罗斯导演帕维·龙根是戛纳的常客。他的三部作品《计程车司机布鲁斯》、《月亮乐园》、《爱,婚了头》都曾获选入围主竞赛单元进行金棕榈的角逐,而1990年的《计程车司机布鲁斯》则最终赢得了最佳导演奖。2007年,帕维·龙根还曾以评委身份参加戛纳电影节。
 
    对于这个背景设置在四百年前的故事,帕维·龙根却认为这部电影与当下有着紧密的联系,他表示:“这是一个关于今天俄罗斯的隐喻,而它也同样指涉斯大林时代。”帕维·龙根表示,这部电影在某些表现手法上借鉴了中国京剧的表演手法。
 
    担任主演的彼得·马莫诺夫是俄罗斯著名演员,有着深厚的舞台剧表演功底,他与导演帕维·龙根曾合作过《计程车司机布鲁斯》、《孤独之岛》等多部作品,非常默契;片中扮演伊凡四世的敌人一角的是奥列格·扬科夫斯基,他是俄罗斯广受欢迎的表演艺术家,已于今年5月20因病逝世。
 
    《沙皇》定于2009年11月4日在俄罗斯公映。

 

  General #1
    ID : 1 (0x1)
    Complete name : 00000.m2ts
    Format : BDAV
    Format/Info : Blu-ray Video
    File size : 22.9 GiB
    Duration : 2h 3mn
    Overall bit rate : 26.4 Mbps
    Maximum Overall bit rate : 35.5 Mbps
  Video #4113
    ID : 4113 (0x1011)
    Menu ID : 1 (0x1)
    Format : AVC
    Format/Info : Advanced Video Codec
    Format profile : High@L4.1
    Format settings, CABAC : Yes
    Format settings, ReFrames : 4 frames
    Codec ID : 27
    Duration : 2h 3mn
    Bit rate mode : Constant
    Bit rate : 23.8 Mbps
    Nominal bit rate : 22.0 Mbps
    Width : 1 920 pixels
    Height : 1 080 pixels
    Display aspect ratio : 16:9
    Frame rate : 23.976 fps
    Standard : NTSC
    Color space : YUV
    Chroma subsampling : 4:2:0
    Bit depth : 8 bits
    Scan type : Progressive
    Bits/(Pixel*Frame) : 0.480
    Stream size : 20.5 GiB (90%)
    Color primaries : BT.709-5, BT.1361, IEC 61966-2-4, SMPTE RP177
    Transfer characteristics : BT.709-5, BT.1361
    Matrix coefficients : BT.709-5, BT.1361, IEC 61966-2-4 709, SMPTE RP177
  Audio #4352
    ID : 4352 (0x1100)
    Menu ID : 1 (0x1)
    Format : DTS
    Format/Info : Digital Theater Systems
    Muxing mode : Stream extension
    Codec ID : 134
    Duration : 2h 3mn
    Bit rate mode : Constant
    Bit rate : 1 510 Kbps
    Channel(s) : 6 channels
    Channel positions : Front: L C R, Side: L R, LFE
    Sampling rate : 48.0 KHz
    Bit depth : 24 bits
    Compression mode : Lossy
    Stream size : 1.30 GiB (6%)
    Language : Russian
  Text #4608
    ID : 4608 (0x1200)
    Menu ID : 1 (0x1)
    Format : PGS
    Codec ID : 144
    Language : Chinese
  Text #4609
    ID : 4609 (0x1201)
    Menu ID : 1 (0x1)
    Format : PGS
    Codec ID : 144
    Language : Chinese

  评论这张
 
阅读(152)| 评论(0)
推荐 转载

历史上的今天

在LOFTER的更多文章

评论

<#--最新日志,群博日志--> <#--推荐日志--> <#--引用记录--> <#--博主推荐--> <#--随机阅读--> <#--首页推荐--> <#--历史上的今天--> <#--被推荐日志--> <#--上一篇,下一篇--> <#-- 热度 --> <#-- 网易新闻广告 --> <#--右边模块结构--> <#--评论模块结构--> <#--引用模块结构--> <#--博主发起的投票-->
 
 
 
 
 
 
 
 
 
 
 
 
 
 

页脚

网易公司版权所有 ©1997-2017