注册 登录  
 加关注
   显示下一条  |  关闭
温馨提示!由于新浪微博认证机制调整,您的新浪微博帐号绑定已过期,请重新绑定!立即重新绑定新浪微博》  |  关闭

逆风飞翔的鸟

追逐风中散落的默契~

 
 
 

日志

 
 
关于我

曾经迷惑于一份距离 曾经感动于一个传说 …… 在仆仆风中 我伸手 抓住你我的缘分 …… “傻傻”的你 能闻到风中 你我的默契吗?!

网易考拉推荐

【动作】Don't.Look.Back.2009.不要回头  

2012-08-13 17:43:29|  分类: 动作 |  标签: |举报 |字号 订阅

  下载LOFTER 我的照片书  |
【动作】Dont.Look.Back.2009.不要回头 - 归鸿 - 逆风飞翔的鸟

◎译  名 不要回头
◎片  名 Don't Look Back
◎年  代 2009
◎国  家 法国/意大利/卢森堡/比利时
◎类  别 剧情/惊悚
◎语  言 法语
◎字  幕 中文
◎IMDB链接  http://www.imdb.com/title/tt1075113/
◎片  长 111 Mins
◎导  演 玛丽娜·德·范 Marina de Van
◎主  演 莫妮卡·贝鲁奇 Monica Bellucci
       苏菲·玛索 Sophie Marceau
       安德里亚·迪·斯戴法诺 Andrea Di Stefano
       Nathalie Broker ....Doublure Valérie
       Brigitte Catillon
       狄迪尔·弗拉蒙 Didier Flamand
       蒂埃里·钮维 Thierry Neuvic
       Thais Fischer
       Myriam Muller
       奥古斯托·兹驰 Augusto Zucchi
       Sylvie Granotier
       Vittoria Meneganti
       Lucas Preux
       Giovanni Franzoni
       Thomas De Araujo
       Frédéric Frenay ....Boucher
 

◎简  介 
 
  珍妮是一位作家,已婚,是两个孩子的妈。她的身体和心理正悄悄的发生变化,但身边的人毫不在意,他们把她的反常归因为创作过程中遭遇的瓶颈和压力。但珍妮自己清楚事情并非这么简单,更蹊跷的事还在后头。某次她在母亲的家里看到一个意大利女人的照片,渐渐的,她开始觉得那个女人就是自己……
 
幕后花絮
 
  本片是法国女导演玛丽娜·德·范导演的第二部长片,2002年她推出了第一部自编自导自演的长片《切肤》。此前她作为演员,与校友、导演弗朗索瓦·欧容合作,参演过《看海》和《失魂家族》。另外,弗朗索瓦·欧容的《沙之下》和《八美图》都有她参与了编剧。
 
  先行版预告片中,苏菲玛索扭曲的面部变幻为贝鲁奇的画面颇为慑人。本片的故事让人不禁联想起基耶斯洛夫斯基的《两生花》,而宣传海报也推出了双款。二位女星在海报上皆以黑色连衣裙亮相,以二人的位置变化相映成趣。有趣的是,海报上二人的POSE却与片名《不要回头》相反——她们都在回头。

 

  General #1
    ID : 1 (0x1)
    Complete name : 00000.m2ts
    Format : BDAV
    Format/Info : Blu-ray Video
    File size : 19.7 GiB
    Duration : 1h 50mn
    Overall bit rate : 25.6 Mbps
    Maximum Overall bit rate : 35.5 Mbps
  Video #4113
    ID : 4113 (0x1011)
    Menu ID : 1 (0x1)
    Format : AVC
    Format/Info : Advanced Video Codec
    Format profile : High@L4.1
    Format settings, CABAC : Yes
    Format settings, ReFrames : 4 frames
    Codec ID : 27
    Duration : 1h 50mn
    Bit rate mode : Constant
    Bit rate : 24.0 Mbps
    Width : 1 920 pixels
    Height : 1 080 pixels
    Display aspect ratio : 16:9
    Frame rate : 23.976 fps
    Standard : NTSC
    Color space : YUV
    Chroma subsampling : 4:2:0
    Bit depth : 8 bits
    Scan type : Progressive
    Bits/(Pixel*Frame) : 0.483
    Stream size : 18.6 GiB (94%)
    Color primaries : BT.709-5, BT.1361, IEC 61966-2-4, SMPTE RP177
    Transfer characteristics : BT.709-5, BT.1361
    Matrix coefficients : BT.709-5, BT.1361, IEC 61966-2-4 709, SMPTE RP177
  Audio #4352
    ID : 4352 (0x1100)
    Menu ID : 1 (0x1)
    Format : AC-3
    Format/Info : Audio Coding 3
    Mode extension : CM (complete main)
    Format settings, Endianness : Big
    Codec ID : 129
    Duration : 480ms
    Bit rate mode : Constant
    Bit rate : 448 Kbps
    Channel(s) : 6 channels
    Channel positions : Front: L C R, Side: L R, LFE
    Sampling rate : 48.0 KHz
    Bit depth : 16 bits
    Compression mode : Lossy
    Stream size : 26.3 KiB (0%)
    Language : French
  Text #4608
    ID : 4608 (0x1200)
    Menu ID : 1 (0x1)
    Format : PGS
    Codec ID : 144
    Language : Chinese
  Text #4609
    ID : 4609 (0x1201)
    Menu ID : 1 (0x1)
    Format : PGS
    Codec ID : 144
    Language : Chinese

  评论这张
 
阅读(115)| 评论(0)
推荐 转载

历史上的今天

在LOFTER的更多文章

评论

<#--最新日志,群博日志--> <#--推荐日志--> <#--引用记录--> <#--博主推荐--> <#--随机阅读--> <#--首页推荐--> <#--历史上的今天--> <#--被推荐日志--> <#--上一篇,下一篇--> <#-- 热度 --> <#-- 网易新闻广告 --> <#--右边模块结构--> <#--评论模块结构--> <#--引用模块结构--> <#--博主发起的投票-->
 
 
 
 
 
 
 
 
 
 
 
 
 
 

页脚

网易公司版权所有 ©1997-2017