注册 登录  
 加关注
   显示下一条  |  关闭
温馨提示!由于新浪微博认证机制调整,您的新浪微博帐号绑定已过期,请重新绑定!立即重新绑定新浪微博》  |  关闭

逆风飞翔的鸟

追逐风中散落的默契~

 
 
 

日志

 
 
关于我

曾经迷惑于一份距离 曾经感动于一个传说 …… 在仆仆风中 我伸手 抓住你我的缘分 …… “傻傻”的你 能闻到风中 你我的默契吗?!

网易考拉推荐

【动作】The.Warriors.1979.战士帮  

2012-08-13 16:26:47|  分类: 动作 |  标签: |举报 |字号 订阅

  下载LOFTER 我的照片书  |
【动作】The.Warriors.1979.战士帮 - 归鸿 - 逆风飞翔的鸟

◎片  名:The Warriors
◎译  名:战士帮
◎类  型:动作/犯罪/剧情/惊悚
◎上  映:1979年02月09日
◎公  司:派拉蒙 Paramount Pictures
◎地  区:美国
◎语  言:英语
◎片  长:94min
◎IMDB链接:http://www.imdb.com/title/tt0080120/
◎导  演:瓦特尔?黑尔 Walter Hill
◎剧  本:Sol Yurick,David Shaber
◎演  员:Michael Beck ...  Swan
      James Remar ...  Ajax
      Dorsey Wright ...  Cleon
      Brian Tyler ...  Snow
      David Harris ...  Cochise
      Tom McKitterick ...  Cowboy

 
◎剧情介绍:
 
  本片是一部美国古惑仔片。一群名为「战士」的飞党,到参加飞党大会。飞党总领袖在主持大集会时中枪身亡,「战士」被诬指为凶手,他们在归途中为各路人马栏截,引出连场恶斗。沃尔特.希尔以浪漫的手法处理现实的题材,特别以瑰丽的美术设计来衬托粗暴的打斗场面,将暴力程度减低。但本片在美国上映期间,引来少青少年模仿,又发生流血事件。

 

  General #1
    ID : 1 (0x1)
    Complete name : 00000.m2ts
    Format : BDAV
    Format/Info : Blu-ray Video
    File size : 16.9 GiB
    Duration : 1h 33mn
    Overall bit rate mode : Variable
    Overall bit rate : 25.7 Mbps
    Maximum Overall bit rate : 35.5 Mbps
  Video #4113
    ID : 4113 (0x1011)
    Menu ID : 1 (0x1)
    Format : AVC
    Format/Info : Advanced Video Codec
    Format profile : High@L4.1
    Format settings, CABAC : Yes
    Format settings, ReFrames : 2 frames
    Codec ID : 27
    Duration : 1h 33mn
    Bit rate mode : Variable
    Bit rate : 24.0 Mbps
    Width : 1 920 pixels
    Height : 1 080 pixels
    Display aspect ratio : 16:9
    Frame rate : 23.976 fps
    Color space : YUV
    Chroma subsampling : 4:2:0
    Bit depth : 8 bits
    Scan type : Progressive
    Bits/(Pixel*Frame) : 0.484
    Stream size : 15.8 GiB (93%)
  Audio #4352
    ID : 4352 (0x1100)
    Menu ID : 1 (0x1)
    Format : AC-3
    Format/Info : Audio Coding 3
    Codec ID : 129
    Duration : 1h 33mn
    Bit rate : 640 Kbps
    Channel(s) : 5 channels
    Sampling rate : 48.0 KHz
    Compression mode : Lossy
    Stream size : 430 MiB (2%)
    Language : English
  Text #4608
    ID : 4608 (0x1200)
    Menu ID : 1 (0x1)
    Format : PGS
    Codec ID : 144
    Language : Chinese
  Text #4609
    ID : 4609 (0x1201)
    Menu ID : 1 (0x1)
    Format : PGS
    Codec ID : 144
    Language : Chinese
  Text #4610
    ID : 4610 (0x1202)
    Menu ID : 1 (0x1)
    Format : PGS
    Codec ID : 144
    Language : English
  Text #4611
    ID : 4611 (0x1203)
    Menu ID : 1 (0x1)
    Format : PGS
    Codec ID : 144
    Language : English
  Text #4612
    ID : 4612 (0x1204)
    Menu ID : 1 (0x1)
    Format : PGS
    Codec ID : 144
    Language : French
  Text #4613
    ID : 4613 (0x1205)
    Menu ID : 1 (0x1)
    Format : PGS
    Codec ID : 144
    Language : Spanish

  评论这张
 
阅读(117)| 评论(0)
推荐 转载

历史上的今天

在LOFTER的更多文章

评论

<#--最新日志,群博日志--> <#--推荐日志--> <#--引用记录--> <#--博主推荐--> <#--随机阅读--> <#--首页推荐--> <#--历史上的今天--> <#--被推荐日志--> <#--上一篇,下一篇--> <#-- 热度 --> <#-- 网易新闻广告 --> <#--右边模块结构--> <#--评论模块结构--> <#--引用模块结构--> <#--博主发起的投票-->
 
 
 
 
 
 
 
 
 
 
 
 
 
 

页脚

网易公司版权所有 ©1997-2017