注册 登录  
 加关注
   显示下一条  |  关闭
温馨提示!由于新浪微博认证机制调整,您的新浪微博帐号绑定已过期,请重新绑定!立即重新绑定新浪微博》  |  关闭

逆风飞翔的鸟

追逐风中散落的默契~

 
 
 

日志

 
 
关于我

曾经迷惑于一份距离 曾经感动于一个传说 …… 在仆仆风中 我伸手 抓住你我的缘分 …… “傻傻”的你 能闻到风中 你我的默契吗?!

网易考拉推荐

【动作】Repulsion.1965.冷血惊魂  

2012-08-13 16:22:26|  分类: 动作 |  标签: |举报 |字号 订阅

  下载LOFTER 我的照片书  |
【动作】Repulsion.1965.冷血惊魂 - 归鸿 - 逆风飞翔的鸟

◎译  名 冷血惊魂/反驳/厌恶
◎片  名 Repulsion
◎年  代 1965
◎国  家 英国
◎类  别 剧情/恐怖/惊悚
◎语  言 英语
◎字  幕 英语
◎IMDB链接  http://www.imdb.com/title/tt0059646/
◎片  长 105 Mins
◎导  演 罗曼·波兰斯基 Roman Polanski
◎主  演 凯瑟琳·德纳芙 Catherine Deneuve  ....Carole Ledoux
       Ian Hendry  ....Michael
       John Fraser  ....Colin
       Yvonne Furneaux  ....Hélène Ledoux
       Patrick Wymark  ....Landlord
       Renee Houston  ....Miss Balch
       Valerie Taylor  ....Madame Denise
       James Villiers  ....John
       Helen Fraser  ....Bridget
       Hugh Futcher  ....Reggie
       Monica Merlin  ....Mrs. Rendlesham
       Imogen Graham  ....Manicurist
       Mike Pratt  ....Workman
       罗曼·波兰斯基 Roman Polanski  ....Spoon Player (uncredited)
       

 ◎简  介 
 
  故事描述比利时少女卡洛雷杜与姐姐一起往在伦敦,在她不苟言笑的美丽下隐藏了性混乱的意识。姐姐把已婚的情人带回公寓幽会,他们的性关系使卡洛困扰不已。当姐姐与情人外出度假时,一直在追求卡洛的英国青年到访。卡幻想他是来攻击她的,于是用烛台把青年打死,接着又用剃刀把意图侵犯她的房东杀死。
 
一句话评论
 
The nightmare world of a virgin's dreams becomes the screen's shocking reality!
 
幕后制作
 
  波兰斯基执导的第一部英语片,探讨性压抑和精神分裂症的心理状态,手法大胆而疯狂。冷艳的法国美女凯瑟琳·德诺芙在片中有令人震惊的演出,其中有一段她走过满是手臂的窄巷的画面气氛诡异,令人毛骨悚然。

 

  General #1
    ID : 1 (0x1)
    Complete name : 00000.m2ts
    Format : BDAV
    Format/Info : Blu-ray Video
    File size : 28.6 GiB
    Duration : 1h 45mn
    Overall bit rate mode : Variable
    Overall bit rate : 38.9 Mbps
    Maximum Overall bit rate : 35.5 Mbps
  Video #4113
    ID : 4113 (0x1011)
    Menu ID : 1 (0x1)
    Format : AVC
    Format/Info : Advanced Video Codec
    Format profile : High@L4.1
    Format settings, CABAC : Yes
    Format settings, ReFrames : 4 frames
    Codec ID : 27
    Duration : 1h 45mn
    Bit rate mode : Variable
    Bit rate : 36.0 Mbps
    Maximum bit rate : 37.0 Mbps
    Width : 1 920 pixels
    Height : 1 080 pixels
    Display aspect ratio : 16:9
    Frame rate : 23.976 fps
    Color space : YUV
    Chroma subsampling : 4:2:0
    Bit depth : 8 bits
    Scan type : Progressive
    Bits/(Pixel*Frame) : 0.723
    Stream size : 26.4 GiB (93%)
    Color primaries : BT.709-5, BT.1361, IEC 61966-2-4, SMPTE RP177
    Transfer characteristics : BT.709-5, BT.1361
    Matrix coefficients : BT.709-5, BT.1361, IEC 61966-2-4 709, SMPTE RP177
  Audio #4352
    ID : 4352 (0x1100)
    Menu ID : 1 (0x1)
    Format : PCM
    Format settings, Endianness : Big
    Format settings, Sign : Signed
    Muxing mode : Blu-ray
    Codec ID : 128
    Duration : 1h 44mn
    Bit rate mode : Constant
    Bit rate : 1 152 Kbps
    Encoded bit rate : 2 304 Kbps
    Channel(s) : 1 channel
    Channel positions : Front: C
    Sampling rate : 48.0 KHz
    Bit depth : 24 bits
    Stream size : 863 MiB (3%)
    Language : English
  Audio #4353
    ID : 4353 (0x1101)
    Menu ID : 1 (0x1)
    Format : AC-3
    Format/Info : Audio Coding 3
    Codec ID : 129
    Duration : 7s 328ms
    Bit rate : 192 Kbps
    Channel(s) : 1 channel
    Sampling rate : 48.0 KHz
    Compression mode : Lossy
    Stream size : 172 KiB (0%)
    Language : English
  Text #4608
    ID : 4608 (0x1200)
    Menu ID : 1 (0x1)
    Format : PGS
    Codec ID : 144
    Language : Chinese
  Text #4609
    ID : 4609 (0x1201)
    Menu ID : 1 (0x1)
    Format : PGS
    Codec ID : 144
    Language : Chinese
  Text #4610
    ID : 4610 (0x1202)
    Menu ID : 1 (0x1)
    Format : PGS
    Codec ID : 144
    Language : English

  评论这张
 
阅读(101)| 评论(0)
推荐 转载

历史上的今天

在LOFTER的更多文章

评论

<#--最新日志,群博日志--> <#--推荐日志--> <#--引用记录--> <#--博主推荐--> <#--随机阅读--> <#--首页推荐--> <#--历史上的今天--> <#--被推荐日志--> <#--上一篇,下一篇--> <#-- 热度 --> <#-- 网易新闻广告 --> <#--右边模块结构--> <#--评论模块结构--> <#--引用模块结构--> <#--博主发起的投票-->
 
 
 
 
 
 
 
 
 
 
 
 
 
 

页脚

网易公司版权所有 ©1997-2017