注册 登录  
 加关注
查看详情
   显示下一条  |  关闭
温馨提示!由于新浪微博认证机制调整,您的新浪微博帐号绑定已过期,请重新绑定!立即重新绑定新浪微博》  |  关闭

逆风飞翔的鸟

追逐风中散落的默契~

 
 
 

日志

 
 
关于我

曾经迷惑于一份距离 曾经感动于一个传说 …… 在仆仆风中 我伸手 抓住你我的缘分 …… “傻傻”的你 能闻到风中 你我的默契吗?!

【剧情】There's.No.Business.Like.Show.Business.1954.娱乐至上  

2012-08-12 19:36:25|  分类: 剧情 |  标签: |举报 |字号 订阅

  下载LOFTER 我的照片书  |
【剧情】Theres.No.Business.Like.Show.Business.1954.娱乐至上 - 归鸿 - 逆风飞翔的鸟

◎译  名 娱乐至上/银色星光/没有像娱乐业那样的事业
◎片  名 Theres No Business Like Show Business
◎年  代 1954
◎国  家 美国
◎类  别 剧情/歌舞
◎语  言 英语
◎字  幕 中文
◎IMDB链接  http://www.imdb.com/title/tt0047574
◎片  长 117 min 14 sec
◎导  演 沃尔特·朗 Walter Lang
◎主  演 埃塞尔·默尔曼 Ethel Merman  ....Molly Donahue
       唐纳德·奥康纳 Donald O'Connor  ....Tim Donahue
       玛丽莲·梦露 Marilyn Monroe  ....Vicky Hoffman/Vicky Parker
       米基·盖纳 Mitzi Gaynor  ....Katy Donahue
       丹·戴利 Dan Dailey  ....Terence Donahue
       Johnnie Ray  ....Steve Donahue
       Richard Eastham  ....Lew Harris
       休·欧布莱恩 Hugh O'Brian  ....Charles Biggs
       弗兰克·麦休 Frank McHugh  ....Eddie Dugan, Vicky's Agent
       Rhys Williams  ....Father Dineen
       Lee Patrick  ....Marge
       Eve Miller  ....Hat check girl
       Robin Raymond  ....Lillian Sawyer
       多萝西·阿伯特 Dorothy Abbott  ....Show Girl (uncredited)
       Charlotte Austin  ....Lorna (uncredited)
       乔治·查金思 George Chakiris  ....Dancer (uncredited)
       John Doucette  ....Stage manager (uncredited)
       Elaine DuPont  ....(uncredited)
       Isabelle Dwan  ....Sophie Tucker (uncredited)
       Donald Kerr  ....Bobby Clark (uncredited)
       Matt Mattox  ....Featured Dancer (uncredited)
       Buzz Miller  ....Dancer (uncredited)
       Ron Nyman  ....Sailor with Tattoos (uncredited)
       Jimmie Maddin  ....Bandleader (uncredited)
 

◎简  介 
 
    影片讲述一对艺人夫妇眼看着三个儿女成长,各自离开家庭而为自己的事业奋斗,不免有点感伤。最后,他们发觉事业仍是令全家人迷醉的行业。气氛热闹而具有人情味的歌舞片,藉一个艺人家庭表现出娱乐事业令人迷醉的一面。
 
奥斯卡金像奖 Academy Awards
第27届 (1955)
提名
·奥斯卡奖-最佳编剧(故事) Lamar Trotti  
·奥斯卡奖-最佳服装设计(彩色) Charles Le Maire , Travilla , Miles White  
·奥斯卡奖-最佳配乐(音乐类) 阿尔弗雷德·纽曼 Alfred Newman , Lionel Newman

 

  General #1
    ID : 1 (0x1)
    Complete name : 00000.m2ts
    Format : BDAV
    Format/Info : Blu-ray Video
    File size : 35.9 GiB
    Duration : 1h 57mn
    Overall bit rate mode : Variable
    Overall bit rate : 43.9 Mbps
    Maximum Overall bit rate : 35.5 Mbps
  Video #4113
    ID : 4113 (0x1011)
    Menu ID : 1 (0x1)
    Format : AVC
    Format/Info : Advanced Video Codec
    Format profile : High@L4.1
    Format settings, CABAC : Yes
    Format settings, ReFrames : 4 frames
    Codec ID : 27
    Duration : 1h 57mn
    Bit rate mode : Variable
    Bit rate : 40.6 Mbps
    Maximum bit rate : 38.5 Mbps
    Width : 1 920 pixels
    Height : 1 080 pixels
    Display aspect ratio : 16:9
    Frame rate : 23.976 fps
    Color space : YUV
    Chroma subsampling : 4:2:0
    Bit depth : 8 bits
    Scan type : Progressive
    Bits/(Pixel*Frame) : 0.816
    Stream size : 33.2 GiB (92%)
  Audio #4352
    ID : 4352 (0x1100)
    Menu ID : 1 (0x1)
    Format : DTS
    Format/Info : Digital Theater Systems
    Muxing mode : Stream extension
    Codec ID : 134
    Duration : 1h 57mn
    Bit rate mode : Constant
    Bit rate : 1 510 Kbps
    Channel(s) : 6 channels
    Channel positions : Front: L C R, Side: L R, LFE
    Sampling rate : 48.0 KHz
    Bit depth : 24 bits
    Compression mode : Lossy
    Stream size : 1.24 GiB (3%)
    Language : English
  Text #4608
    ID : 4608 (0x1200)
    Menu ID : 1 (0x1)
    Format : PGS
    Codec ID : 144
    Language : Chinese
  Text #4609
    ID : 4609 (0x1201)
    Menu ID : 1 (0x1)
    Format : PGS
    Codec ID : 144
    Language : Chinese
  Text #4610
    ID : 4610 (0x1202)
    Menu ID : 1 (0x1)
    Format : PGS
    Codec ID : 144
    Language : Japanese
  Text #4611
    ID : 4611 (0x1203)
    Menu ID : 1 (0x1)
    Format : PGS
    Codec ID : 144
    Language : English
  Text #4612
    ID : 4612 (0x1204)
    Menu ID : 1 (0x1)
    Format : PGS
    Codec ID : 144
    Language : Spanish
  Text #4613
    ID : 4613 (0x1205)
    Menu ID : 1 (0x1)
    Format : PGS
    Codec ID : 144
    Language : French
  Text #4614
    ID : 4614 (0x1206)
    Menu ID : 1 (0x1)
    Format : PGS
    Codec ID : 144
    Language : Spanish
  Text #4615
    ID : 4615 (0x1207)
    Menu ID : 1 (0x1)
    Format : PGS
    Codec ID : 144
    Language : Danish
  Text #4616
    ID : 4616 (0x1208)
    Menu ID : 1 (0x1)
    Format : PGS
    Codec ID : 144
    Language : Dutch
  Text #4617
    ID : 4617 (0x1209)
    Menu ID : 1 (0x1)
    Format : PGS
    Codec ID : 144
    Language : Finnish
  Text #4618
    ID : 4618 (0x120A)
    Menu ID : 1 (0x1)
    Format : PGS
    Codec ID : 144
    Language : German
  Text #4619
    ID : 4619 (0x120B)
    Menu ID : 1 (0x1)
    Format : PGS
    Codec ID : 144
    Language : Italian
  Text #4620
    ID : 4620 (0x120C)
    Menu ID : 1 (0x1)
    Format : PGS
    Codec ID : 144
    Language : Norwegian
  Text #4621
    ID : 4621 (0x120D)
    Menu ID : 1 (0x1)
    Format : PGS
    Codec ID : 144
    Language : Portuguese
  Text #4622
    ID : 4622 (0x120E)
    Menu ID : 1 (0x1)
    Format : PGS
    Codec ID : 144
    Duration : 1h 57mn
    Delay relative to video : 6s 6ms
    Language : Russian
  Text #4623
    ID : 4623 (0x120F)
    Menu ID : 1 (0x1)
    Format : PGS
    Codec ID : 144
    Language : Swedish
  Text #4624
    ID : 4624 (0x1210)
    Menu ID : 1 (0x1)
    Format : PGS
    Codec ID : 144
    Language : Croatian
  Text #4625
    ID : 4625 (0x1211)
    Menu ID : 1 (0x1)
    Format : PGS
    Codec ID : 144
    Language : Greek
  Text #4626
    ID : 4626 (0x1212)
    Menu ID : 1 (0x1)
    Format : PGS
    Codec ID : 144
    Language : Hebrew
  Text #4627
    ID : 4627 (0x1213)
    Menu ID : 1 (0x1)
    Format : PGS
    Codec ID : 144
    Language : Hungarian
  Text #4628
    ID : 4628 (0x1214)
    Menu ID : 1 (0x1)
    Format : PGS
    Codec ID : 144
    Language : Icelandic
  Text #4629
    ID : 4629 (0x1215)
    Menu ID : 1 (0x1)
    Format : PGS
    Codec ID : 144
    Language : Korean
  Text #4630
    ID : 4630 (0x1216)
    Menu ID : 1 (0x1)
    Format : PGS
    Codec ID : 144
    Language : Portuguese
  Text #4631
    ID : 4631 (0x1217)
    Menu ID : 1 (0x1)
    Format : PGS
    Codec ID : 144
    Language : Thai
  Text #4632
    ID : 4632 (0x1218)
    Menu ID : 1 (0x1)
    Format : PGS
    Codec ID : 144
    Language : Turkish

  评论这张
 
阅读(185)| 评论(0)
推荐 转载

历史上的今天

评论

<#--最新日志,群博日志--> <#--推荐日志--> <#--引用记录--> <#--博主推荐--> <#--随机阅读--> <#--首页推荐--> <#--历史上的今天--> <#--被推荐日志--> <#--上一篇,下一篇--> <#-- 热度 --> <#-- 网易新闻广告 --> <#--右边模块结构--> <#--评论模块结构--> <#--引用模块结构--> <#--博主发起的投票-->
 
 
 
 
 
 
 
 
 
 
 
 
 
 

页脚

网易公司版权所有 ©1997-2018