注册 登录  
 加关注
   显示下一条  |  关闭
温馨提示!由于新浪微博认证机制调整,您的新浪微博帐号绑定已过期,请重新绑定!立即重新绑定新浪微博》  |  关闭

逆风飞翔的鸟

追逐风中散落的默契~

 
 
 

日志

 
 
关于我

曾经迷惑于一份距离 曾经感动于一个传说 …… 在仆仆风中 我伸手 抓住你我的缘分 …… “傻傻”的你 能闻到风中 你我的默契吗?!

网易考拉推荐

【亚洲】The.Soul.of.Bread.2012.爱的面包魂  

2012-08-12 14:15:48|  分类: 亚洲 |  标签: |举报 |字号 订阅

  下载LOFTER 我的照片书  |
【亚洲】The.Soul.of.Bread.2012.爱的面包魂 - 归鸿 - 逆风飞翔的鸟

◎译  名 爱的面包魂
◎片  名 The Soul of Bread
◎年  代 2012
◎国  家 中国台湾
◎类  别 爱情/喜剧
◎语  言 普通话/英语/闽南语
◎字  幕 中文
◎IMDB链接  http://www.imdb.com/title/tt2191861
◎片  长 113 Mins
◎导  演 高炳权 Bingquan Gao
      林君阳 Junyang Lin
◎主  演 陈汉典 Han Dian Chen      
      陈妍希 Michelle Chen
      倪安东 Anthony Neely
      廖峻 Jun Liao
      鄢胜宇 Sheng-yu Yan
      陈盈洁 Yin-jie Chen
      赖成德 Cheng-de Lai
      相林 Lin Xiang
      弯弯 Wan Wan


◎简  介 

    在一个正港台客面包师傅,遇到了来自英国的贵族面包师傅,为了追求心爱的女孩,展开正面对决。两个男人,乡村面包店的土洋大战,谁输谁赢,口味将决定一切.......

  糕饼(陈汉典 饰)是一间位于在高雄乡间“源晨面包店”的面包师傅,和店长邱爸(廖峻 饰)的女儿晓萍(陈妍希 饰) 是从小到大的青梅竹马。非晓萍不娶的糕饼,有一天晚上精心筹划了一场求婚惊喜,但晓萍心中一直有个渴望实现的梦想,因此面对糕饼的求婚仍旧不为所动。 这天,平静的面包店,来了一位帅气的混血王子布莱德(倪安东 饰)。身为国际美食旅游节目主持人,同时也是米其林三星餐厅主厨,布莱德为了寻找灵感,决定找出母亲生前最爱的面包,而来到这个纯朴的小镇。他对晓萍一见钟情,晓萍虽心有所属,但是,布莱德做的欧式面包,以及他浪漫温柔的举止,意外地搅乱晓萍和糕饼的生活。 在晓萍无心插柳的安排下,布莱德以房客的身分,和糕饼一起住在面包店顶楼,并成为糕饼的学徒。眼见晓萍与布莱德的感情越来越好,布莱德甚至要带晓萍离开台湾前往法国实现她的梦想!

  为了留住晓萍,糕饼决定接受健生嫂(陈盈洁 饰)的提议和布莱德来一场以“台式面包PK欧式面包”为主题的面包大赛。深情贵公子与认真黑狗兄的东西烘焙大对决,晓萍最终选择的是?.......

【幕后制作 】
 
  由台湾新锐导演高秉权执导,台湾综艺教父王伟忠监制的电影《爱的面包魂》即将于7月13日正式登陆内地大银幕。“综艺小天王”陈汉典和“全民女神”陈妍希两个风格完全不搭的人在电影中意外走到了一起,片中陈汉典一直在追陈妍希,并最终打动美人芳心。在片中两人“一吻定情”,然而这出备受关注的吻戏其实是陈汉典在电影中首次拍摄吻戏,缺乏“经验”的他在现场闹出了不少笑话。然而在戏外,这对电影界的“**”却双双表示“不来电”。

★陈妍希:有了面包再去寻找爱情

  陈妍希凭藉《那些年》中清新可人的沈佳宜一角成为了众多宅男心目中的“女神”,也让众多男生回忆起了自己的初恋情人。因此,在现实生活中,谁能够追到像陈妍希这样的女孩,也一直让粉丝们十分关注。自《那些年》之后,陈妍希无论与哪位人气男演员搭档总会令她绯闻缠身。

  拍摄《爱的面包魂》的时候,男女主角陈妍希与陈汉典几乎每天都“腻”在一起,电影中的“吻戏”更是火花四射,不免令外人猜测是假戏真做,戏外两人频频互动,多次传出绯闻。尽管双方早已多次否认,但是两人却依然视对方为家人、闺蜜,态度仍然略显暧昧。在近来为电影四处奔波的各个场合上,两人的默契又让媒体不禁再度重提“绯闻”的问题。前不久,在主持人的撺掇下,陈汉典决定现场再“追”一次。只见工作人员拿上两个面包,陈汉典挑了其中圆形的面包,走到陈妍希面前,单膝跪地,说:“嫁给我吧。”台下有粉丝高喊:“揍他!揍他!”陈妍希举着另一个棍形面包假装打他,笑得直不起腰来。然而,当问及“绯闻”之时,陈妍希依旧否认。对于面包和爱情之间的抉择,陈妍希表示:“目前自己还是要选择面包,有了面包再去寻找爱情。”

★陈汉典:与陈妍希不来电,最期待与蔡康永小S拍电影

  在《爱的面包魂》中,陈汉典首次尝试爱情戏,不想一场银幕初吻就把综艺舞台上百无禁忌的陈汉典弄得紧张不已,平时陈妍希和陈汉典在剧组有闹有笑,但到了拍吻戏那天,两人却都不怎么敢说话了。接吻需要气氛,拍吻戏时,演员就是再入戏也难免会尴尬。陈汉典在片中与陈妍希的吻戏,同时也是他在银幕上的初吻。“导演给我一个指令,就要我去报复陈妍希,我不止要吻她,还要把她推到餐桌上。”陈汉典说,“当时我们就很自然地进入到场景里。”陈妍希回忆,那天开拍的时候我们都不想说太多话,因为要进入到那种压抑的情境中。她还透露,陈汉典当天很焦虑,不断问“会不会紧张”长达半小时,“这是一场强吻的吻戏,因此根本没有想象的那么轻松,不过好在没有NG。”

  走红后,陈汉典的档期排得满满当当,甚至没有时间谈恋爱。原以为与陈妍希“假戏真做”,他却在采访中矢口否认,说“不来电”。可是陈汉典从来不吝啬对陈妍希的赞美,“我当然知道有很多男生喜欢他,她的个性又那么好,非常平易近人,相处起来非常轻松。可是我们之间真的没有火花,可能是因为彼此太熟悉了吧,如果要我想象和她拍拖,真的会觉得好别扭。”当记者再次问及陈妍希是不是最佳女友人选时,陈汉典则表示,“她当然不算啦!我们是在拍《爱情面包魂》的时候接触比较频密,吃饭、工作都在一起,所以有人误会我们在闹绯闻。”对于理想对象的条件,陈汉典以“孝顺”为首要考量,“老婆”的类型则视陈妍希和蝴蝶姐姐为模范,大方称赞两人都很孝顺,但否认有追求的可能,直说:“我们都太熟了!”对于“综艺小天王”和“电影新人王”的名号,陈汉典似乎都不舍得放弃,他表示,“电影和综艺我都不想放弃。如果可以的话,最想跟S姐和康永哥演电影。不过如果我们三个演戏的话,康永哥肯定是导演。”

【幕后花絮 】
 
·在2007年第九届台北电影节颁奖典礼上,台湾新生代导演高炳权凭著电视电影《爱的面包魂》一举拿下观众票选奖、媒体评审特别提及奖以及评审团特别推荐奖三大荣誉,其后与林君阳决定联手拍摄电影版,二人均出身台北艺术大学电影创作研究所,前者管戏,后者负责影像,展现绝佳默契。

·本片是陈汉典首度担任男一号,他还将为陈妍希献出了银幕初吻。
 
【精彩对白】
   转身   
    望着大地斜去的影子   
    轨迹   
    错织南来北往的境遇   
    盈满生命中每个可喜的意外。

 

  General #1
    ID : 1 (0x1)
    Complete name : 00000.m2ts
    Format : BDAV
    Format/Info : Blu-ray Video
    File size : 21.7 GiB
    Duration : 1h 50mn
    Overall bit rate mode : Variable
    Overall bit rate : 28.1 Mbps
    Maximum Overall bit rate : 35.5 Mbps
  Video #4113
    ID : 4113 (0x1011)
    Menu ID : 1 (0x1)
    Format : AVC
    Format/Info : Advanced Video Codec
    Format profile : High@L4.1
    Format settings, CABAC : Yes
    Format settings, ReFrames : 4 frames
    Codec ID : 27
    Duration : 1h 50mn
    Bit rate mode : Variable
    Bit rate : 25.7 Mbps
    Maximum bit rate : 28.0 Mbps
    Width : 1 920 pixels
    Height : 1 080 pixels
    Display aspect ratio : 16:9
    Frame rate : 24.000 fps
    Standard : NTSC
    Color space : YUV
    Chroma subsampling : 4:2:0
    Bit depth : 8 bits
    Scan type : Progressive
    Bits/(Pixel*Frame) : 0.517
    Stream size : 19.9 GiB (91%)
    Color primaries : BT.709-5, BT.1361, IEC 61966-2-4, SMPTE RP177
    Transfer characteristics : BT.709-5, BT.1361
    Matrix coefficients : BT.709-5, BT.1361, IEC 61966-2-4 709, SMPTE RP177
  Audio #4352
    ID : 4352 (0x1100)
    Menu ID : 1 (0x1)
    Format : TrueHD
    Muxing mode : Stream extension
    Codec ID : 131
    Duration : 1h 50mn
    Bit rate mode : Variable
    Bit rate : 640 Kbps
    Maximum bit rate : 5 652 Kbps
    Channel(s) : 8 channels
    Channel positions : Front: L C R, Side: L R, Back: L R, LFE
    Sampling rate : 96.0 KHz
    Compression mode : Lossless
    Stream size : 506 MiB (2%)
    Language : Chinese
  Audio #4353
    ID : 4353 (0x1101)
    Menu ID : 1 (0x1)
    Format : AC-3
    Format/Info : Audio Coding 3
    Codec ID : 129
    Duration : 1h 50mn
    Bit rate : 640 Kbps
    Channel(s) : 5 channels
    Sampling rate : 48.0 KHz
    Compression mode : Lossy
    Stream size : 506 MiB (2%)
    Language : Chinese
  Text #4608
    ID : 4608 (0x1200)
    Menu ID : 1 (0x1)
    Format : PGS
    Codec ID : 144
    Language : Chinese
  Text #4609
    ID : 4609 (0x1201)
    Menu ID : 1 (0x1)
    Format : PGS
    Codec ID : 144
    Language : English

  评论这张
 
阅读(220)| 评论(0)
推荐 转载

历史上的今天

在LOFTER的更多文章

评论

<#--最新日志,群博日志--> <#--推荐日志--> <#--引用记录--> <#--博主推荐--> <#--随机阅读--> <#--首页推荐--> <#--历史上的今天--> <#--被推荐日志--> <#--上一篇,下一篇--> <#-- 热度 --> <#-- 网易新闻广告 --> <#--右边模块结构--> <#--评论模块结构--> <#--引用模块结构--> <#--博主发起的投票-->
 
 
 
 
 
 
 
 
 
 
 
 
 
 

页脚

网易公司版权所有 ©1997-2017