注册 登录  
 加关注
   显示下一条  |  关闭
温馨提示!由于新浪微博认证机制调整,您的新浪微博帐号绑定已过期,请重新绑定!立即重新绑定新浪微博》  |  关闭

逆风飞翔的鸟

追逐风中散落的默契~

 
 
 

日志

 
 
关于我

曾经迷惑于一份距离 曾经感动于一个传说 …… 在仆仆风中 我伸手 抓住你我的缘分 …… “傻傻”的你 能闻到风中 你我的默契吗?!

网易考拉推荐

【剧情】The.Solitude.of.Prime.Numbers.2010.质数的孤独  

2012-08-12 12:29:23|  分类: 剧情 |  标签: |举报 |字号 订阅

  下载LOFTER 我的照片书  |
【剧情】The.Solitude.of.Prime.Numbers.2010.质数的孤独 - 归鸿 - 逆风飞翔的鸟

◎译  名 质数的孤独/素数的孤独
◎片  名 The Solitude Of Prime Numbers
◎年  代 2010
◎国  家 意大利/法国/德国
◎类  别 剧情
◎语  言 意大利语
◎IMDB链接  http://www.imdb.com/title/tt1441373/
◎片  长 119 mins 22 seconds
◎导  演 萨维里奥·克斯坦佐 Saverio Costanzo
◎主  演 伊莎贝拉·罗西里尼 Isabella Rossellini ....Adele
       阿尔芭·洛尔瓦尔 Alba Rohrwaher ....Alice Della Rocca
       费立波·提米 Filippo Timi ....Clown
       卢卡·马里内力 Luca Marinelli ....Mattia Balossino
       Maurizio Donadoni ....Umberto Balossino
       Martina Albano ....Alice as a child
       Arianna Nastro ....Young Alice
       Tommaso Neri ....Mattia as a child
       Vittorio Lomartire ....Young Mattia
       阿洛拉·鲁芬诺 Aurora Ruffino ....Viola Bai
       Giorgia Pizzio ....Michela as a child
       Roberto Sbaratto ....Pietro Balossino
       Giorgia Senesi ....Elena
       Giorgia Pizzo ....Michela
      
 
◎简  介 
 
  本片改编自同名小说。Alice讨厌去教滑雪的学校,因为是她的爸爸强迫她去的。一天清晨,大雾笼罩,她一点儿也不饿,早餐喝下去的牛奶让她的胃沉重而难受。她在雾中与她的同伴们走散了,她迷失了方向,这让她觉得很丢脸,于是她试着滑雪下山,但最终的结果是她弄伤了一条腿。她独自倒在滑雪道的尽头,无法动弹,却无法停止去想在冬天狼群是不是也会出来觅食。
 
  Mattia是个非常聪明的小男孩,他有一个双胞胎妹妹,Michela,有些智力发育不全。Michela的出现让Mattia在他的同龄人中丢了脸,所以,在Mattia的同班同学邀请他们两人去参加他的派对时,Mattia第一次决定将Michela独自丢在了公园里,并向她保证他会回来找她。
 
  这是两个主人公,两条故事线的开端,这两个事件的无法避免的悲惨后果将成为他们生活的转折点:Alice和Mattia,从童年,青少年,青年直到成人,这件心头刺一直都是他们生活中让人无法忽视的浓重一笔。
 
  而当他们的生活有了交叉,他们感觉到非常亲近,好像有什么东西链接着他们,或者说,让他们无法被分开。
 
  《质数的孤独》这部影片根据畅销小说改编,原著曾获得意大利的顶级文学大奖。故事以两位孩童的童年生活展开,最后两条支线汇总到一起,两个主人公的生活也有了交叉点,发生了联系。一边是曾经走散并被困于雪山中的爱丽丝,一边是曾经抛弃智障妹妹的马提亚,两人在长大后相遇,并发觉两人之间有着一丝特别的联系。

 

  General #1
    ID : 1 (0x1)
    Complete name : 00000.m2ts
    Format : BDAV
    Format/Info : Blu-ray Video
    File size : 27.0 GiB
    Duration : 1h 54mn
    Overall bit rate mode : Variable
    Overall bit rate : 33.8 Mbps
    Maximum Overall bit rate : 35.5 Mbps
  Video #4113
    ID : 4113 (0x1011)
    Menu ID : 1 (0x1)
    Format : AVC
    Format/Info : Advanced Video Codec
    Format profile : High@L4.1
    Format settings, CABAC : Yes
    Format settings, ReFrames : 4 frames
    Codec ID : 27
    Duration : 1h 54mn
    Bit rate mode : Variable
    Bit rate : 30.9 Mbps
    Maximum bit rate : 33.0 Mbps
    Width : 1 920 pixels
    Height : 1 080 pixels
    Display aspect ratio : 16:9
    Frame rate : 25.000 fps
    Color space : YUV
    Chroma subsampling : 4:2:0
    Bit depth : 8 bits
    Scan type : MBAFF
    Bits/(Pixel*Frame) : 0.596
    Stream size : 24.7 GiB (92%)
    Color primaries : BT.709-5, BT.1361, IEC 61966-2-4, SMPTE RP177
    Transfer characteristics : BT.709-5, BT.1361
    Matrix coefficients : BT.709-5, BT.1361, IEC 61966-2-4 709, SMPTE RP177
  Audio #4352
    ID : 4352 (0x1100)
    Menu ID : 1 (0x1)
    Format : DTS
    Format/Info : Digital Theater Systems
    Muxing mode : Stream extension
    Codec ID : 134
    Duration : 1h 54mn
    Bit rate mode : Constant
    Bit rate : 1 510 Kbps
    Channel(s) : 6 channels
    Channel positions : Front: L C R, Side: L R, LFE
    Sampling rate : 48.0 KHz
    Bit depth : 16 bits
    Compression mode : Lossy
    Stream size : 1.21 GiB (4%)
    Language : Italian
  Text #4608
    ID : 4608 (0x1200)
    Menu ID : 1 (0x1)
    Format : PGS
    Codec ID : 144
    Language : Chinese
  Text #4609
    ID : 4609 (0x1201)
    Menu ID : 1 (0x1)
    Format : PGS
    Codec ID : 144
    Language : Chinese
  Text #4610
    ID : 4610 (0x1202)
    Menu ID : 1 (0x1)
    Format : PGS
    Codec ID : 144
    Language : German

  评论这张
 
阅读(148)| 评论(0)
推荐 转载

历史上的今天

在LOFTER的更多文章

评论

<#--最新日志,群博日志--> <#--推荐日志--> <#--引用记录--> <#--博主推荐--> <#--随机阅读--> <#--首页推荐--> <#--历史上的今天--> <#--被推荐日志--> <#--上一篇,下一篇--> <#-- 热度 --> <#-- 网易新闻广告 --> <#--右边模块结构--> <#--评论模块结构--> <#--引用模块结构--> <#--博主发起的投票-->
 
 
 
 
 
 
 
 
 
 
 
 
 
 

页脚

网易公司版权所有 ©1997-2017