注册 登录  
 加关注
   显示下一条  |  关闭
温馨提示!由于新浪微博认证机制调整,您的新浪微博帐号绑定已过期,请重新绑定!立即重新绑定新浪微博》  |  关闭

逆风飞翔的鸟

追逐风中散落的默契~

 
 
 

日志

 
 
关于我

曾经迷惑于一份距离 曾经感动于一个传说 …… 在仆仆风中 我伸手 抓住你我的缘分 …… “傻傻”的你 能闻到风中 你我的默契吗?!

网易考拉推荐

【剧情】River.of.No.Return.1954.大江东去  

2012-08-12 12:15:03|  分类: 剧情 |  标签: |举报 |字号 订阅

  下载LOFTER 我的照片书  |
【剧情】River.of.No.Return.1954.大江东去 - 归鸿 - 逆风飞翔的鸟

◎译  名 大江东去
◎片  名 River Of No Return
◎年  代 1954
◎国  家 美国
◎类  别 冒险/西部
◎语  言 英语
◎字  幕 中文
◎IMDB链接  http://www.imdb.com/title/tt0047422
◎片  长 90 min 56 sec
◎导  演 奥托·普雷明格 Otto Preminger
       让·尼古拉斯科 Jean Negulesco  ....(uncredited)
◎主  演 罗伯特·米彻姆 Robert Mitchum  ....Matt Calder
       玛丽莲·梦露 Marilyn Monroe  ....Kay Weston
       罗里·卡尔亨 Rory Calhoun  ....Harry Weston (gambler)
       芭芭拉·尼科尔斯 Barbara Nichols  ....Blonde dancer (uncredited)
       Tommy Rettig  ....Mark Calder
       Murvyn Vye  ....Dave Colby (prospector)
       Douglas Spencer  ....Sam Benson (prospector)
       Fred Aldrich  ....Barfly at Camp Saloon (uncredited)
       Claire Andre  ....Surrey driver (uncredited)
       Hal Baylor  ....Young Punk (uncredited)
       Don Beddoe  ....Ben (Council City storekeeper) (uncredited)
       Larry Chance  ....Young Punk (uncredited)
       John Cliff  ....Leering Man (uncredited)
       埃德蒙·科博 Edmund Cobb  ....Town barber (uncredited)
       John Doucette  ....Man in saloon (uncredited)
       Geneva Gray  ....Dance Hall Girl (uncredited)
       Ed Hinton  ....Gambler (uncredited)
       Mitchell Kowall  ....(uncredited)
       Mitchell Lawrence  ....Young Punk (uncredited)
       Jarma Lewis  ....Saloon dancer (uncredited)
       Jack Mather  ....Dealer at card table (uncredited)
       Ann McCrea  ....Dance Hall Girl (uncredited)
       Harry Monty  ....(uncredited)
       Fay Morley  ....Dancer (uncredited)
       Paul Newlan  ....Prospector (uncredited)
       Ralph Sanford  ....Bartender (uncredited)
       Jerome Schaeffer  ....(uncredited)
       Harry Seymour  ....Piano Player (uncredited)
       Arthur Shields  ....The Minister at Tent City (uncredited)
       John Veitch  ....Young Punk (uncredited)
       Harry Wilson  ....Barfly at Camp Saloon (uncredited)
       Will Wright  ....Trader (uncredited)
 

◎简  介 
 
    本片背景是淘金热时代的美国西北山区——一名刚出狱的囚犯来到镇上接他的儿子回家,认识了照顾儿子的酒吧歌女,但也引起了歌女男友的怀疑。当获释的囚犯和儿子在农庄耕种时,歌女的男友前来寻衅,后来又偷了囚犯的枪和马,赶到矿区去淘金。歌女感到不忍心,留下来照顾囚犯。此时,印第安人前来突袭农庄,于是三人沿河流逃亡到镇上……

 

  General #1
    ID : 1 (0x1)
    Complete name : 00000.m2ts
    Format : BDAV
    Format/Info : Blu-ray Video
    File size : 25.1 GiB
    Duration : 1h 30mn
    Overall bit rate mode : Variable
    Overall bit rate : 39.5 Mbps
    Maximum Overall bit rate : 35.5 Mbps
  Video #4113
    ID : 4113 (0x1011)
    Menu ID : 1 (0x1)
    Format : AVC
    Format/Info : Advanced Video Codec
    Format profile : High@L4.1
    Format settings, CABAC : Yes
    Format settings, ReFrames : 4 frames
    Codec ID : 27
    Duration : 1h 30mn
    Bit rate mode : Variable
    Bit rate : 36.0 Mbps
    Width : 1 920 pixels
    Height : 1 080 pixels
    Display aspect ratio : 16:9
    Frame rate : 23.976 fps
    Color space : YUV
    Chroma subsampling : 4:2:0
    Bit depth : 8 bits
    Scan type : Progressive
    Bits/(Pixel*Frame) : 0.724
    Stream size : 23.1 GiB (92%)
  Audio #4352
    ID : 4352 (0x1100)
    Menu ID : 1 (0x1)
    Format : DTS
    Format/Info : Digital Theater Systems
    Muxing mode : Stream extension
    Codec ID : 134
    Duration : 1h 30mn
    Bit rate mode : Constant
    Bit rate : 1 510 Kbps
    Channel(s) : 6 channels
    Channel positions : Front: L C R, Side: L R, LFE
    Sampling rate : 48.0 KHz
    Bit depth : 24 bits
    Compression mode : Lossy
    Stream size : 981 MiB (4%)
    Language : English
  Text #4608
    ID : 4608 (0x1200)
    Menu ID : 1 (0x1)
    Format : PGS
    Codec ID : 144
    Language : Chinese
  Text #4609
    ID : 4609 (0x1201)
    Menu ID : 1 (0x1)
    Format : PGS
    Codec ID : 144
    Language : Chinese
  Text #4610
    ID : 4610 (0x1202)
    Menu ID : 1 (0x1)
    Format : PGS
    Codec ID : 144
    Language : Japanese
  Text #4611
    ID : 4611 (0x1203)
    Menu ID : 1 (0x1)
    Format : PGS
    Codec ID : 144
    Language : English
  Text #4612
    ID : 4612 (0x1204)
    Menu ID : 1 (0x1)
    Format : PGS
    Codec ID : 144
    Language : Spanish
  Text #4613
    ID : 4613 (0x1205)
    Menu ID : 1 (0x1)
    Format : PGS
    Codec ID : 144
    Language : French
  Text #4614
    ID : 4614 (0x1206)
    Menu ID : 1 (0x1)
    Format : PGS
    Codec ID : 144
    Language : Spanish
  Text #4615
    ID : 4615 (0x1207)
    Menu ID : 1 (0x1)
    Format : PGS
    Codec ID : 144
    Language : Danish
  Text #4616
    ID : 4616 (0x1208)
    Menu ID : 1 (0x1)
    Format : PGS
    Codec ID : 144
    Language : Dutch
  Text #4617
    ID : 4617 (0x1209)
    Menu ID : 1 (0x1)
    Format : PGS
    Codec ID : 144
    Language : Finnish
  Text #4618
    ID : 4618 (0x120A)
    Menu ID : 1 (0x1)
    Format : PGS
    Codec ID : 144
    Language : German
  Text #4619
    ID : 4619 (0x120B)
    Menu ID : 1 (0x1)
    Format : PGS
    Codec ID : 144
    Language : Italian
  Text #4620
    ID : 4620 (0x120C)
    Menu ID : 1 (0x1)
    Format : PGS
    Codec ID : 144
    Language : Japanese
  Text #4621
    ID : 4621 (0x120D)
    Menu ID : 1 (0x1)
    Format : PGS
    Codec ID : 144
    Language : Norwegian
  Text #4622
    ID : 4622 (0x120E)
    Menu ID : 1 (0x1)
    Format : PGS
    Codec ID : 144
    Language : Portuguese
  Text #4623
    ID : 4623 (0x120F)
    Menu ID : 1 (0x1)
    Format : PGS
    Codec ID : 144
    Language : Russian
  Text #4624
    ID : 4624 (0x1210)
    Menu ID : 1 (0x1)
    Format : PGS
    Codec ID : 144
    Language : Swedish
  Text #4625
    ID : 4625 (0x1211)
    Menu ID : 1 (0x1)
    Format : PGS
    Codec ID : 144
    Language : Bulgarian
  Text #4626
    ID : 4626 (0x1212)
    Menu ID : 1 (0x1)
    Format : PGS
    Codec ID : 144
    Language : Chinese
  Text #4627
    ID : 4627 (0x1213)
    Menu ID : 1 (0x1)
    Format : PGS
    Codec ID : 144
    Language : Greek
  Text #4628
    ID : 4628 (0x1214)
    Menu ID : 1 (0x1)
    Format : PGS
    Codec ID : 144
    Language : Korean
  Text #4629
    ID : 4629 (0x1215)
    Menu ID : 1 (0x1)
    Format : PGS
    Codec ID : 144
    Language : Thai

  评论这张
 
阅读(109)| 评论(0)
推荐 转载

历史上的今天

在LOFTER的更多文章

评论

<#--最新日志,群博日志--> <#--推荐日志--> <#--引用记录--> <#--博主推荐--> <#--随机阅读--> <#--首页推荐--> <#--历史上的今天--> <#--被推荐日志--> <#--上一篇,下一篇--> <#-- 热度 --> <#-- 网易新闻广告 --> <#--右边模块结构--> <#--评论模块结构--> <#--引用模块结构--> <#--博主发起的投票-->
 
 
 
 
 
 
 
 
 
 
 
 
 
 

页脚

网易公司版权所有 ©1997-2017