注册 登录  
 加关注
   显示下一条  |  关闭
温馨提示!由于新浪微博认证机制调整,您的新浪微博帐号绑定已过期,请重新绑定!立即重新绑定新浪微博》  |  关闭

逆风飞翔的鸟

追逐风中散落的默契~

 
 
 

日志

 
 
关于我

曾经迷惑于一份距离 曾经感动于一个传说 …… 在仆仆风中 我伸手 抓住你我的缘分 …… “傻傻”的你 能闻到风中 你我的默契吗?!

网易考拉推荐

【亚洲】Aces.Go.Places.5.1989.最佳拍档5:兵马俑风云  

2012-08-12 12:01:53|  分类: 亚洲 |  标签: |举报 |字号 订阅

  下载LOFTER 我的照片书  |
【亚洲】Aces.Go.Places.5.1989.最佳拍档5:兵马俑风云 - 归鸿 - 逆风飞翔的鸟

◎译  名 最佳拍档5:兵马俑风云/新最佳拍档
◎片  名 Xin zuijia paidang
◎年  代 1989
◎国  家 中国香港
◎类  别 动作/犯罪/喜剧
◎语  言 国粤双语 
◎IMDB链接  http://www.imdb.com/title/tt0098681/
◎片  长 102 mins 25 seconds
◎导  演 刘家良 Chia-Liang Liu
◎主  演 张国荣 Leslie Cheung  ....Brother Thief
       许冠杰 Sam Hui  ....King Kong
       麦嘉 Carl Maka  ....Albert Au
       陈雅伦 Ellen Chan  ....Ellen
       张耀扬 Roy Cheung  ....Murderer King
       曹达华 Dahua Cao  ....Wah
       玛利亚 Maria Cordero  ....Woman in Window
       夏志珍 Chi Chun Ha  ....Female Communist Agent #1
       李修贤 Danny Lee  ....Prisoner from Hong Kong
       利智 Nina Li  ....Sister Thief
       黄锦燊 Melvin Wong  ....Thug
       袁洁莹 Fennie Yuen  ....Albert's Niece
       李元霸 Yuanba Li  ....Chinese Rambo
       Willie Doxan
       Deborah Grant  ....Deborah
       
 
◎简  介 
 
  故事描述西安的兵马俑文物及秦王剑于1988年底出国展览,第一站是香港,不料文物在运港途中被白手党盗走,事发后张国荣与利智假扮最佳拍档抢走了秦王剑,真的最佳拍档许冠杰与麦嘉成为香港警方全力追捕的人,而大陆警方则派出武术高手李元霸赴港追回失物。
 
◎花  絮
 
  时光走到1989年,《最佳拍档》已经出品四集,其票房霸主地位逐渐被新兴的江湖英雄片、时装功夫片和家庭贺岁喜剧所替代。然而一个成功的系列喜剧总是有其忠实的拥趸,于是新艺城邀得著名功夫导演刘家良出马,制造了一个与前四集主题连贯、然而风格截然不同的《新最佳拍档》。这部电影除了有光头神探和金刚这一对最佳拍档出马外,还冲出一对新最佳拍档:张国荣和利智。
 
  张国荣对于能够和许冠杰合演电影极为兴奋,为了排好档期,连预定的《倩女幽魂II人间道》都延期拍摄了。早在出道之初,张国荣就已经将许冠杰尊为“偶像”,时时买他的碟听,“从他身上揣摩一些唱歌的技巧”,自己成名之后仍然将他作为极其尊贵的前辈来对待,“每次见面都想鞠躬”。令张国荣敬佩的不仅是许冠杰超人的才艺还有他善良随和的品性:“我喜欢阿Sam待人处世的态度,我自己就自问没有他那样随和,我是周身充满了角的,而阿Sam,他一切喜怒哀乐,都维持得好好。不过,以后我都会如阿Sam一样,管他嘲笑作弄,风言风语,我会始终‘沉默是金’!”《沉默是金》正是张国荣作曲、许冠杰作词的合作歌曲,业界与公众口碑皆佳,公认为粤语流行乐坛代表作之一。这一次成功的合作更拉进了两人的距离,结成了忘年之交,此后又有共同作词作曲的《烈火灯蛾》问世,在《新最佳拍档》中,两人共同创作的充满喜剧色彩的歌曲《我未惊过》也颇受欢迎:“……有杀错,冇放过,见靓女即上‘My name is Paul’!接正个mother是四百磅的大肥婆,她的手秤住我,要我跳似火探戈!我未惊过!……”
 
  女主角利智是上海人,少年时代随家迁居香港,“大陆妹”的身份使她步步艰难,虽然以惊人的美貌与身材在亚洲小姐选举中夺冠,亦是第一位领取奖杯时被台下劲嘘的冠军。出演《新最佳拍档》的时候她已经从影三年,作品不少,但是一律是性感花瓶角色,处处被拿“老土”、“笨拙”和三围做文章。《新最佳拍档》里,安排了很多以搞笑方式折磨新最佳拍档的情节,例如捆在柱子上拷问,浸到水里喂鱼……这些情节中张国荣只是陪绑,制作方针对的其实是利智:“就是要欺负她,要她哭,香港的观众是看到利智被欺负才高兴。”结果利智在戏内戏外都不住地哭,一边尽力搞笑一边泪流成河……
 
  所幸这个时候的利智已经遇到了功夫巨星李连杰,不久以后退出江湖成为李连杰的贤内助,直到相伴十余年,已经育有两子的如今,李连杰提起利智时仍然充满感情地表示:“遇到利智后,我发觉对她的爱,是可以让我付出一切名利、地位,甚至生命,有一种豁出去的感觉……”同时利智亦是爱情事业双丰收的成功女性,进军商界成绩斐然,投资连连获利,与李连杰的生活极其丰足,被称为生意手腕最高超的演艺人士之一。人生如此,相信对于过去所受到的歧视欺凌,利智已经可以轻松地付之一笑。  
 
  利智和张国荣在片中扮演的是一对姐弟,假扮最佳拍档偷窃国宝,得手后居然乘大炮遁去,乱玩帅的。其实张国荣比利智要年长六岁有余,但是让利智扮演他姐姐而不是女友或妹妹真是明智之举,因为他们两个人的外型和气质太不般配了,张国荣就像一只亮晶晶的青苹果,而利智至少也是个熟透了的美国蛇果,数里之外都可以闻到浓香……
 


  General #1
    ID : 1 (0x1)
    Complete name : 00000.m2ts
    Format : BDAV
    Format/Info : Blu-ray Video
    File size : 20.9 GiB
    Duration : 1h 42mn
    Overall bit rate mode : Variable
    Overall bit rate : 29.2 Mbps
    Maximum Overall bit rate : 35.5 Mbps
  Video #4113
    ID : 4113 (0x1011)
    Menu ID : 1 (0x1)
    Format : AVC
    Format/Info : Advanced Video Codec
    Format profile : High@L4.1
    Format settings, CABAC : Yes
    Format settings, ReFrames : 4 frames
    Codec ID : 27
    Duration : 1h 42mn
    Bit rate mode : Variable
    Bit rate : 25.1 Mbps
    Maximum bit rate : 30.0 Mbps
    Width : 1 920 pixels
    Height : 1 080 pixels
    Display aspect ratio : 16:9
    Frame rate : 23.976 fps
    Standard : NTSC
    Color space : YUV
    Chroma subsampling : 4:2:0
    Bit depth : 8 bits
    Scan type : Progressive
    Bits/(Pixel*Frame) : 0.504
    Stream size : 17.9 GiB (86%)
    Color primaries : BT.709-5, BT.1361, IEC 61966-2-4, SMPTE RP177
    Transfer characteristics : BT.709-5, BT.1361
    Matrix coefficients : BT.709-5, BT.1361, IEC 61966-2-4 709, SMPTE RP177
  Audio #4352
    ID : 4352 (0x1100)
    Menu ID : 1 (0x1)
    Format : DTS
    Format/Info : Digital Theater Systems
    Format profile : MA / Core
    Muxing mode : Stream extension
    Codec ID : 134
    Duration : 1h 42mn
    Bit rate mode : Variable
    Bit rate : 2 377 Kbps / 1 510 Kbps
    Channel(s) : 8 channels / 6 channels
    Channel positions : Front: L C R, Side: L R, Back: L R, LFE / Front: L C R, Side: L R, LFE
    Sampling rate : 48.0 KHz
    Bit depth : 16 bits
    Compression mode : Lossless / Lossy
    Language : Chinese
  Audio #4353
    ID : 4353 (0x1101)
    Menu ID : 1 (0x1)
    Format : AC-3
    Format/Info : Audio Coding 3
    Mode extension : CM (complete main)
    Format settings, Endianness : Big
    Codec ID : 129
    Duration : 1h 42mn
    Bit rate mode : Constant
    Bit rate : 640 Kbps
    Channel(s) : 6 channels
    Channel positions : Front: L C R, Side: L R, LFE
    Sampling rate : 48.0 KHz
    Bit depth : 16 bits
    Compression mode : Lossy
    Stream size : 467 MiB (2%)
    Language : Chinese
  Text #4608
    ID : 4608 (0x1200)
    Menu ID : 1 (0x1)
    Format : PGS
    Codec ID : 144
    Language : Chinese
  Text #4609
    ID : 4609 (0x1201)
    Menu ID : 1 (0x1)
    Format : PGS
    Codec ID : 144
    Language : English

  评论这张
 
阅读(138)| 评论(0)
推荐 转载

历史上的今天

在LOFTER的更多文章

评论

<#--最新日志,群博日志--> <#--推荐日志--> <#--引用记录--> <#--博主推荐--> <#--随机阅读--> <#--首页推荐--> <#--历史上的今天--> <#--被推荐日志--> <#--上一篇,下一篇--> <#-- 热度 --> <#-- 网易新闻广告 --> <#--右边模块结构--> <#--评论模块结构--> <#--引用模块结构--> <#--博主发起的投票-->
 
 
 
 
 
 
 
 
 
 
 
 
 
 

页脚

网易公司版权所有 ©1997-2017