注册 登录  
 加关注
   显示下一条  |  关闭
温馨提示!由于新浪微博认证机制调整,您的新浪微博帐号绑定已过期,请重新绑定!立即重新绑定新浪微博》  |  关闭

逆风飞翔的鸟

追逐风中散落的默契~

 
 
 

日志

 
 
关于我

曾经迷惑于一份距离 曾经感动于一个传说 …… 在仆仆风中 我伸手 抓住你我的缘分 …… “傻傻”的你 能闻到风中 你我的默契吗?!

网易考拉推荐

【亚洲】Aces.Go.Places.2.1983.最佳拍档2:大显神通  

2012-08-12 12:00:01|  分类: 亚洲 |  标签: |举报 |字号 订阅

  下载LOFTER 我的照片书  |
【亚洲】Aces.Go.Places.2.1983.最佳拍档2:大显神通 - 归鸿 - 逆风飞翔的鸟

◎译   名 最佳拍档2 大显神通
◎片   名 Aces Go Places
◎年   代 1983
◎国   家 香港
◎类   别 喜剧/动作
◎IMDB链接  http://www.imdb.com/title/tt0086646/
◎语   言 普通话/粤语
◎字   幕 中文
◎片   长 101 mins 46 seconds
◎导   演 曾志伟 Eric Tsang
◎主   演 许冠杰 Sam Hui  ....King Kong
       张艾嘉 Sylvia Chang  ....Supt. Nancy Ho
       曹查理 Charlie Cho  ....Wong
       曹达华 Dahua Cao  ....Hua
       徐克 Hark Tsui  ....Cameo appearance (uncredited)
       麦嘉 Carl Maka  ....Albert Au (as Carl Mak)
       仓田保昭 Yasuaki Kurata  ....Bull
       楼南光 Billy Lau  ....Gunman
       曾志伟 Eric Tsang  ....Fattie
       黄百鸣 Bak-Ming Wong  ....Priest
       Hector Britt
       Joe Dimmick
       Suzanna Valentino
       汪庭欢 Sue Wang  ....Juju
       关淑怡 Shirley Kwan  ....(as Gwan Shirley)
       San TaiGlenn Thompson
 

◎简   介 
 
  金刚(许冠杰 饰)成功降服白手袜之后,白手袜之兄黑手袜受黑手党指派继续交易钻石并向金刚复仇,金刚与黑手袜的高级机器人大战数合终于侥幸胜利,却马上又落入了牛牛、悠悠兄妹犯罪团伙的骗局,卷入银行抢劫案成为嫌犯,金刚逃亡路上将拍档光头神探(麦嘉 饰)与何东诗(张艾嘉 饰)的婚礼搅得一塌糊涂。所幸光头神探义字当先合力与金刚对抗牛牛、黑手袜,却不料金刚再次被悠悠戏弄,光头神探也只落得被严妻整治。最佳拍档被牛牛团伙胁迫,不得不出面抢夺钻石,而黑手袜方面再次出动高级机器人应战,早有准备的金刚取出机器人特工队,混战一触即发……
 
  本片是最佳拍档系列的第二集。
 

◎幕后制作
 
  1982年,新艺城电影公司以石天、麦嘉、黄百鸣、徐克等人为首的“新艺城七怪”不计人力财力,集众人之智慧拍出的《最佳拍档》(Aces Go Places)上映时盛况空前,创下香港开埠以来最高的票房成绩。本片是其陆续开拍的续集作品之一,曾被寄予很高的商业期望,但事实上影片推出后在香港的票房效果尚算可以,但并没有达到公司所寄予的期望值,与与影片投入的高成本形成了强烈的反差。但可贵的是,影片虽然在香港卖不动,却在东南亚陆续奏凯,捞得了经济利益。这一点,也坚定了新艺城继续将续集做下去的决心,企图以更高的投入与喜剧路线对撼嘉禾的“成龙”喜剧电影以及接踵而来的“福星”喜剧片。

 

  General #1
    ID : 1 (0x1)
    Complete name : 00000.m2ts
    Format : BDAV
    Format/Info : Blu-ray Video
    File size : 20.7 GiB
    Duration : 1h 41mn
    Overall bit rate mode : Variable
    Overall bit rate : 29.1 Mbps
    Maximum Overall bit rate : 35.5 Mbps
  Video #4113
    ID : 4113 (0x1011)
    Menu ID : 1 (0x1)
    Format : AVC
    Format/Info : Advanced Video Codec
    Format profile : High@L4.1
    Format settings, CABAC : Yes
    Format settings, ReFrames : 4 frames
    Codec ID : 27
    Duration : 1h 41mn
    Bit rate mode : Variable
    Bit rate : 25.0 Mbps
    Maximum bit rate : 30.0 Mbps
    Width : 1 920 pixels
    Height : 1 080 pixels
    Display aspect ratio : 16:9
    Frame rate : 23.976 fps
    Standard : NTSC
    Color space : YUV
    Chroma subsampling : 4:2:0
    Bit depth : 8 bits
    Scan type : Progressive
    Bits/(Pixel*Frame) : 0.502
    Stream size : 17.8 GiB (86%)
    Color primaries : BT.709-5, BT.1361, IEC 61966-2-4, SMPTE RP177
    Transfer characteristics : BT.709-5, BT.1361
    Matrix coefficients : BT.709-5, BT.1361, IEC 61966-2-4 709, SMPTE RP177
  Audio #4352
    ID : 4352 (0x1100)
    Menu ID : 1 (0x1)
    Format : DTS
    Format/Info : Digital Theater Systems
    Format profile : MA / Core
    Muxing mode : Stream extension
    Codec ID : 134
    Duration : 1h 41mn
    Bit rate mode : Variable
    Bit rate : 2 359 Kbps / 1 510 Kbps
    Channel(s) : 8 channels / 6 channels
    Channel positions : Front: L C R, Side: L R, Back: L R, LFE / Front: L C R, Side: L R, LFE
    Sampling rate : 48.0 KHz
    Bit depth : 16 bits
    Compression mode : Lossless / Lossy
    Language : Chinese
  Audio #4353
    ID : 4353 (0x1101)
    Menu ID : 1 (0x1)
    Format : AC-3
    Format/Info : Audio Coding 3
    Mode extension : CM (complete main)
    Format settings, Endianness : Big
    Codec ID : 129
    Duration : 1h 41mn
    Bit rate mode : Constant
    Bit rate : 640 Kbps
    Channel(s) : 6 channels
    Channel positions : Front: L C R, Side: L R, LFE
    Sampling rate : 48.0 KHz
    Bit depth : 16 bits
    Compression mode : Lossy
    Stream size : 464 MiB (2%)
    Language : Chinese
  Text #4608
    ID : 4608 (0x1200)
    Menu ID : 1 (0x1)
    Format : PGS
    Codec ID : 144
    Language : Chinese
  Text #4609
    ID : 4609 (0x1201)
    Menu ID : 1 (0x1)
    Format : PGS
    Codec ID : 144
    Language : English

  评论这张
 
阅读(170)| 评论(0)
推荐 转载

历史上的今天

在LOFTER的更多文章

评论

<#--最新日志,群博日志--> <#--推荐日志--> <#--引用记录--> <#--博主推荐--> <#--随机阅读--> <#--首页推荐--> <#--历史上的今天--> <#--被推荐日志--> <#--上一篇,下一篇--> <#-- 热度 --> <#-- 网易新闻广告 --> <#--右边模块结构--> <#--评论模块结构--> <#--引用模块结构--> <#--博主发起的投票-->
 
 
 
 
 
 
 
 
 
 
 
 
 
 

页脚

网易公司版权所有 ©1997-2017