注册 登录  
 加关注
   显示下一条  |  关闭
温馨提示!由于新浪微博认证机制调整,您的新浪微博帐号绑定已过期,请重新绑定!立即重新绑定新浪微博》  |  关闭

逆风飞翔的鸟

追逐风中散落的默契~

 
 
 

日志

 
 
关于我

曾经迷惑于一份距离 曾经感动于一个传说 …… 在仆仆风中 我伸手 抓住你我的缘分 …… “傻傻”的你 能闻到风中 你我的默契吗?!

网易考拉推荐

【剧情】Down.by.Law.1986.不法之徒  

2012-08-11 11:07:18|  分类: 剧情 |  标签: |举报 |字号 订阅

  下载LOFTER 我的照片书  |
【剧情】Down.by.Law.1986.不法之徒 - 归鸿 - 逆风飞翔的鸟

◎译  名 不法之徒/法外行走
◎片  名 Down by Law
◎年  代 1986
◎国  家 美国/西德
◎类  别 喜剧/犯罪/剧情
◎语  言 英语
◎IMDB链接  http://www.imdb.com/title/tt0090967
◎片  长 01:46:54
◎导  演 吉姆·贾木许 Jim Jarmusch
◎主  演 汤姆·威兹 Tom Waits  ....Zack
       约翰·劳瑞 John Lurie  ....Jack
       罗伯托·贝尼尼 Roberto Benigni  ....Roberto
       尼可莱塔·布拉斯基 Nicoletta Braschi  ....Nicoletta
       艾伦·巴金 Ellen Barkin  ....Laurette
       Billie Neal  ....Bobbie
       Rockets Redglare  ....Gig
       Vernel Bagneris  ....Preston
       Timothea  ....Julie
       L.C. Drane  ....L. C
       Joy N. Houck Jr.  ....Detective Mandino
       Carrie Lindsoe  ....Young Girl
       Ralph Joseph  ....Detective
       Richard Boes  ....Detective
       Dave Petitjean  ....Cajun Detective
       Adam Cohen  ....Uniformed Cop
       Alan Kleinberg  ....Corpse
       Archie Sampier  ....Prisoner
       David Dahlgren  ....Guard #1
       Alex Miller  ....Guard #2
       Eliott Keener  ....Guard #3
       Jay Hilliard  ....Guard #4
       普路特·泰勒·文斯 Pruitt Taylor Vince  ....(scenes deleted)
 

◎简  介 
 
  也只是混日子而已,搞得他们的女友总是抱怨不已,扎克的老婆忍无可忍之下把他踢了出去。杰克在哥们和女友的游说下干起了拉皮条的勾当,但他由于经验不足,很快就被人陷害进了监狱。而被老婆赶出家门的扎克,同样受了朋友的骗,为了钱,开着一辆后备箱里装着尸体的汽车招摇过市,也跟着进了杰克的监狱。
 
  两个人在监狱里整天愁眉不展心情烦躁,开始还能聊聊天,但很快就话不投机打了起来。一天,他们的牢房又增加了一位难友——滑稽的意大利旅行家鲍勃。鲍勃的到来,给杰克和扎克枯燥的监狱生活带来了欢乐,他的近乎天真的举动和外国人滑稽的言谈,让监狱里开始有了笑声。鲍勃天性乐观,在他的鼓励下,其他两个男人也开始考虑自由的问题……
 

戛纳电影节 Cannes Film Festival
第39届 (1986)
 
提名
 ·主竞赛单元-金棕榈奖 吉姆·贾木许 Jim Jarmusch  
 
◎一句话评论
 It's not where you start - It's where you start again.
 


  General #1
    ID : 1 (0x1)
    Complete name : 00000.m2ts
    Format : BDAV
    Format/Info : Blu-ray Video
    File size : 20.7 GiB
    Duration : 1h 46mn
    Overall bit rate mode : Variable
    Overall bit rate : 27.7 Mbps
    Maximum Overall bit rate : 35.5 Mbps
  Video #4113
    ID : 4113 (0x1011)
    Menu ID : 1 (0x1)
    Format : AVC
    Format/Info : Advanced Video Codec
    Format profile : High@L4.1
    Format settings, CABAC : Yes
    Format settings, ReFrames : 4 frames
    Codec ID : 27
    Duration : 1h 46mn
    Bit rate mode : Variable
    Bit rate : 25.4 Mbps
    Maximum bit rate : 37.0 Mbps
    Width : 1 920 pixels
    Height : 1 080 pixels
    Display aspect ratio : 16:9
    Frame rate : 23.976 fps
    Color space : YUV
    Chroma subsampling : 4:2:0
    Bit depth : 8 bits
    Scan type : Progressive
    Bits/(Pixel*Frame) : 0.512
    Stream size : 19.0 GiB (92%)
  Audio #4352
    ID : 4352 (0x1100)
    Menu ID : 1 (0x1)
    Format : PCM
    Format settings, Endianness : Big
    Format settings, Sign : Signed
    Muxing mode : Blu-ray
    Codec ID : 128
    Duration : 1h 46mn
    Bit rate mode : Constant
    Bit rate : 1 152 Kbps
    Encoded bit rate : 2 304 Kbps
    Channel(s) : 1 channel
    Channel positions : Front: C
    Sampling rate : 48.0 KHz
    Bit depth : 24 bits
    Stream size : 877 MiB (4%)
    Language : English
  Text #4608
    ID : 4608 (0x1200)
    Menu ID : 1 (0x1)
    Format : PGS
    Codec ID : 144
    Language : Chinese
  Text #4609
    ID : 4609 (0x1201)
    Menu ID : 1 (0x1)
    Format : PGS
    Codec ID : 144
    Language : Chinese
  Text #4610
    ID : 4610 (0x1202)
    Menu ID : 1 (0x1)
    Format : PGS
    Codec ID : 144
    Language : Chinese
  Text #4611
    ID : 4611 (0x1203)
    Menu ID : 1 (0x1)
    Format : PGS
    Codec ID : 144
    Language : English

  评论这张
 
阅读(103)| 评论(0)
推荐 转载

历史上的今天

在LOFTER的更多文章

评论

<#--最新日志,群博日志--> <#--推荐日志--> <#--引用记录--> <#--博主推荐--> <#--随机阅读--> <#--首页推荐--> <#--历史上的今天--> <#--被推荐日志--> <#--上一篇,下一篇--> <#-- 热度 --> <#-- 网易新闻广告 --> <#--右边模块结构--> <#--评论模块结构--> <#--引用模块结构--> <#--博主发起的投票-->
 
 
 
 
 
 
 
 
 
 
 
 
 
 

页脚

网易公司版权所有 ©1997-2017