注册 登录  
 加关注
   显示下一条  |  关闭
温馨提示!由于新浪微博认证机制调整,您的新浪微博帐号绑定已过期,请重新绑定!立即重新绑定新浪微博》  |  关闭

逆风飞翔的鸟

追逐风中散落的默契~

 
 
 

日志

 
 
关于我

曾经迷惑于一份距离 曾经感动于一个传说 …… 在仆仆风中 我伸手 抓住你我的缘分 …… “傻傻”的你 能闻到风中 你我的默契吗?!

网易考拉推荐

【剧情】Easy.Virtue.2008.水性杨花  

2012-08-11 11:42:45|  分类: 剧情 |  标签: |举报 |字号 订阅

  下载LOFTER 我的照片书  |
【剧情】Easy.Virtue.2008.水性杨花 - 归鸿 - 逆风飞翔的鸟

【影片原名】Easy Virtue
【中文译名】水性杨花/放荡
【出品公司】Hopscotch Productions
【出品年代】2008 年
【上映日期】2008年11月7日  英国 
【影片级别】USA: PG               
【官方网站】http://easyvirtuethemovie.co.uk/
【IMDB链接】http://www.imdb.com/title/tt0808244
【国  家】英国
【类  别】爱情/喜剧
【影片长度】97 Mins
【对白语言】英语
【字幕语言】中文
【导  演】斯蒂芬·埃利奥特 Stephan Elliott
【主  演】杰西卡·贝尔 Jessica Biel....Larita Huntington
       本·巴恩斯 Ben Barnes....John Whittaker
       克里斯汀·斯科特·托马斯 Kristin Scott Thomas....Mrs. Whittaker
       金伯莉·尼克松 Kimberley Nixon
       Christian Brassington ....Phillip
       Georgie Glen ....Mrs. Landrigin
       凯瑟琳·帕金森 Katherine Parkinson....Marion Whittaker
       克里斯·马歇尔 Kris Marshall....Furber
       夏洛特·莱李 Charlotte Riley....Sarah Hurst
       Jim McManus ....Jackson
       Pip Torrens ....Lord Hurst
       Laurence Richardson ....Marcus
       科林·费尔斯 Colin Firth

 
【内容简介】
 
  本片改编自诺埃尔·考沃德的戏剧,一位离婚的美国女子在法国南部遇到一个年轻的英国男人,两人迅速落入爱河并闪电结婚。但当他把她带回英国的家时,则必须要面对他整个家庭的质疑和挑战……希区柯克在1928年也曾根据这个剧本拍过同名的电影。
 
幕后制作
 
  息影十年后重执导筒
 
  当导演斯蒂芬·埃利奥特出现在第52届伦敦电影节上时,他最想做的不是庆祝他的新电影《水性杨花》在伦敦首映,而是向生命致敬。2004年一次近乎致命的滑雪事故导致他后背、腿部、骨盆粉碎性骨折,如今能站在红毯上已经是一个奇迹了。44岁的他意识自己是多么幸运。他指着脖子到腹部的地方笑着说:“现在这都是钢筋铁骨了,我完全钛化了”。许多独立电影制作人都梦想有一天能够像悉尼导演斯蒂芬·埃利奥特一样取得在评论与商业上的双丰收。
 
  斯蒂芬·埃利奥特7岁拿着相机到处玩,8岁立志成为一名导演,80年代开始他就在澳大利亚电影圈摸爬滚打,从副导演开始做起,在1993年独立拍摄电影时他已经拍过30多部电影了。他在1994年拍摄了电影《沙漠妖姬》,电影描述了三名人妖秀艺人乘坐大巴士横穿澳大利亚前往夜总会表演的故事。电影大获成功,编剧兼导演的史蒂芬频繁出入在奥斯卡、英国电影和电视艺术学院奖与金球奖等各大颁奖典礼的红毯上,但是他承认他一直都被众人深切的期待吓得要命。此后的几年,史蒂芬又拍摄了一部喜剧和一部间谍惊悚片,但是两部均以惨淡票房收场,于是他发誓不再拍电影了,用他自己的话来说就是“那都是些不好的经历,不堪回首。我完全失去自信,发誓不再拍电影了”。
 
  息影后十年,因滑雪事故在鬼门关转了一圈的斯蒂芬决定重执导筒。英国导演巴纳比·汤普森把《水性杨花》的剧本给他,这部改编自诺埃尔·考沃德的同名喜剧,讲述一位漂亮时髦的美国妻子拉丽达嫁给英国人约翰·惠特克后,卷入家庭文化冲突的故事。
 
  为经典作品注入新的活力
 
  首次将考沃德的这部戏搬上大荧幕是希区柯克,此次埃利奥特进行了很大的改动。他认为虽然这曾经是两位大师的作品,一个是戏剧大师考沃德,一个是悬疑电影大师希区柯克,但是希区柯克的版本很血腥并不好看,因为他那时还不是真正的希区柯克;而把考沃德的电影以默片的形式展现也没多大意思。
   他在介绍该片时说:“出色的演员阵容、漂亮的服装、宏大的场景,我们的目标是拍一部完全现代的电影,为经典作品注入新的活力以满足现代观众的需要”。斯蒂芬·埃利奥特将我们带回到19世纪20年代,为我们上演了一部浪漫轻松的爱情喜剧。在演员托马斯看来,长期远离电影圈也是件好事,导演埃利奥特既满怀新手的热情,又稍带着一丝不羁。导演毫不掩饰地说起片场的紧张气氛,尤其是两位女主角,他将贝尔和托马斯比做“互相围着打转的猫”,“我只要说声开拍就让她们自由发挥了,两个人擦出的火花相当的惊人。”
 
  “凯斯宾王子”本·巴恩斯
 
  继欧洲电视网的歌手比赛惨遭淘汰,本·巴恩斯成为流行歌手的梦想破灭,随即他在明星云集的影片《星尘》的开头露了个小脸,几个月后遇到了他人生的转折点,摇身一变成了《纳尼亚传奇2》中的凯斯宾王子。在《水性杨花》中,他放下刀剑拿起了网球拍,变成了一个无忧无虑的英国贵族,高高兴兴地带着与他闪电结婚的时髦美国老婆回家,却发现等着他的是整个家庭的质疑和挑战。
 
  本·巴恩斯介绍说:“这部爱情喜剧在搞笑的同时也带着悲剧的色彩。电影以第一次世界大战结束后和经济大萧条开始前作为历史背景,所有这些都被浓重的欢乐和愉快所掩饰。因为如果你一直过的很好,你就不会意识到到你所拥有的有多好,所以搞笑的主题下潜藏着悲剧的调调,以此达到某种平衡,这是非常高明的手段 ”。
   谈起与科林的合作时,本认为:“在片场科林和我可能会调皮一点,可能最早开拍的时候是按照剧本来演的,那是后来就成了Eddie Izzard的表演风格,散漫且漫无边际的独白。科林顺其自然的成为了我的导师,因为我没有遇到比他更好的人”。
 
  好莱坞新宠――杰西卡·贝尔
 
  杰西卡·贝尔一改在电影《绝密飞行》中的女飞行员形象,在《水性杨花》中饰演一位漂亮时髦的美国妻子拉丽达,展现出她多方位的表演天分。无论穿上哪个时代服装的杰西卡,永远都是那么光彩照人。
 
  本·巴恩斯觉得与杰西卡·贝尔拍感情戏没有任何困难,“人们常告诉我,在那样的场合面对着一群人,再激情的场面也都激情不起来之类的话,但与杰西卡的吻戏我不能装作那一点都不好吧。我们就那样一起被扔到床上,世界上最简单的事情莫过于假装被她迷得七晕八素……她是个非常可爱,也非常好的人”。“贝尔的男朋友贾斯汀·汀布莱克完全没必要担心他的女人会被人抢走”,巴恩斯打趣地说,“贾斯汀有天突然到现场探班,我们当时拍一场跳舞的戏。他看见我跳舞,一点也不担心,一点也不在乎。”
 
花絮
 
  ·克里斯汀·斯科特·托马斯因为该片而获英国独立电影奖最佳女配角奖提名。
 
  ·影片被选作多伦多电影节的放映影片之一,同时也计划在11月7日首映前在里昂电影节、罗马电影节、伦敦电影节上进行放映。
 
  ·为了片中的角色,杰西卡·贝尔特地把头发染成金色,成了现在的金发女郎。
 
  ·为了力挺即将上映的喜剧片《水性杨花》,杰西卡·贝尔首次为电影音乐献声,演唱电影的主题曲及其中的另外一首曲目。据知情人士说“她能够很好的掌控自己声音,很有感染力。”
 
  ·巴恩斯与杰西卡在电影中扮演夫妻,但在电影开拍前两人素未谋面,于是在初次见面的时候,巴恩斯还特意买了束花送给杰西卡。
 
  ·杰西卡的男朋友贾斯汀·汀布莱克曾去拍摄现场探班。导演斯蒂芬·埃利奥特回忆当时的情形时说到:“没人告诉我那天他会来探班,所以我很纳闷为什么所有的摄影师都过去了。我和他小聊了一会,他一直都很低调,一直保持着力挺老婆的好丈夫形象。这样也很好,因为她马上就会因为这部电影而震惊全世界。”
 


  General #1
    ID : 1 (0x1)
    Complete name : 00000.m2ts
    Format : BDAV
    Format/Info : Blu-ray Video
    File size : 24.3 GiB
    Duration : 1h 36mn
    Overall bit rate mode : Variable
    Overall bit rate : 36.0 Mbps
    Maximum Overall bit rate : 35.5 Mbps
  Video #4113
    ID : 4113 (0x1011)
    Menu ID : 1 (0x1)
    Format : AVC
    Format/Info : Advanced Video Codec
    Format profile : High@L4.1
    Format settings, CABAC : Yes
    Format settings, ReFrames : 4 frames
    Codec ID : 27
    Duration : 1h 36mn
    Bit rate mode : Variable
    Bit rate : 33.8 Mbps
    Maximum bit rate : 30.0 Mbps
    Width : 1 920 pixels
    Height : 1 080 pixels
    Display aspect ratio : 16:9
    Frame rate : 23.976 fps
    Color space : YUV
    Chroma subsampling : 4:2:0
    Bit depth : 8 bits
    Scan type : Progressive
    Bits/(Pixel*Frame) : 0.680
    Stream size : 22.8 GiB (94%)
    Color primaries : BT.709-5, BT.1361, IEC 61966-2-4, SMPTE RP177
    Transfer characteristics : BT.709-5, BT.1361
    Matrix coefficients : BT.709-5, BT.1361, IEC 61966-2-4 709, SMPTE RP177
  Audio #4352
    ID : 4352 (0x1100)
    Menu ID : 1 (0x1)
    Format : TrueHD
    Muxing mode : Stream extension
    Codec ID : 131
    Duration : 20s 513ms
    Bit rate mode : Variable
    Bit rate : 640 Kbps
    Maximum bit rate : 4 950 Kbps
    Channel(s) : 6 channels
    Channel positions : Front: L C R, Side: L R, LFE
    Sampling rate : 48.0 KHz
    Compression mode : Lossless
    Stream size : 1.57 MiB (0%)
    Language : English
  Audio #4353
    ID : 4353 (0x1101)
    Menu ID : 1 (0x1)
    Format : AC-3
    Format/Info : Audio Coding 3
    Codec ID : 129
    Duration : 1h 36mn
    Bit rate : 128 Kbps
    Channel(s) : 1 channel
    Sampling rate : 48.0 KHz
    Compression mode : Lossy
    Stream size : 88.3 MiB (0%)
    Language : Chinese
  Text #4608
    ID : 4608 (0x1200)
    Menu ID : 1 (0x1)
    Format : PGS
    Codec ID : 144
    Delay relative to video : 15s 307ms
    Language : Chinese
  Text #4609
    ID : 4609 (0x1201)
    Menu ID : 1 (0x1)
    Format : PGS
    Codec ID : 144
    Delay relative to video : 15s 307ms
    Language : Chinese
  Text #4610
    ID : 4610 (0x1202)
    Menu ID : 1 (0x1)
    Format : PGS
    Codec ID : 144
    Language : English
  Text #4611
    ID : 4611 (0x1203)
    Menu ID : 1 (0x1)
    Format : PGS
    Codec ID : 144
    Language : English
  Text #4612
    ID : 4612 (0x1204)
    Menu ID : 1 (0x1)
    Format : PGS
    Codec ID : 144
    Duration : 1h 36mn
    Delay relative to video : 13s 13ms
    Language : English
  Text #4613
    ID : 4613 (0x1205)
    Menu ID : 1 (0x1)
    Format : PGS
    Codec ID : 144
    Language : Spanish
  Text #4614
    ID : 4614 (0x1206)
    Menu ID : 1 (0x1)
    Format : PGS
    Codec ID : 144
    Language : Portuguese
  Text #4615
    ID : 4615 (0x1207)
    Menu ID : 1 (0x1)
    Format : PGS
    Codec ID : 144
    Language : German
  Text #4616
    ID : 4616 (0x1208)
    Menu ID : 1 (0x1)
    Format : PGS
    Codec ID : 144
    Language : Turkish
  Text #4617
    ID : 4617 (0x1209)
    Menu ID : 1 (0x1)
    Format : PGS
    Codec ID : 144
    Delay relative to video : 15s 933ms
    Language : English
  Text #4618
    ID : 4618 (0x120A)
    Menu ID : 1 (0x1)
    Format : PGS
    Codec ID : 144
    Delay relative to video : 15s 933ms
    Language : Spanish
  Text #4619
    ID : 4619 (0x120B)
    Menu ID : 1 (0x1)
    Format : PGS
    Codec ID : 144
    Delay relative to video : 15s 933ms
    Language : Portuguese
  Text #4620
    ID : 4620 (0x120C)
    Menu ID : 1 (0x1)
    Format : PGS
    Codec ID : 144
    Delay relative to video : 15s 933ms
    Language : German

  评论这张
 
阅读(128)| 评论(0)
推荐 转载

历史上的今天

在LOFTER的更多文章

评论

<#--最新日志,群博日志--> <#--推荐日志--> <#--引用记录--> <#--博主推荐--> <#--随机阅读--> <#--首页推荐--> <#--历史上的今天--> <#--被推荐日志--> <#--上一篇,下一篇--> <#-- 热度 --> <#-- 网易新闻广告 --> <#--右边模块结构--> <#--评论模块结构--> <#--引用模块结构--> <#--博主发起的投票-->
 
 
 
 
 
 
 
 
 
 
 
 
 
 

页脚

网易公司版权所有 ©1997-2017