注册 登录  
 加关注
   显示下一条  |  关闭
温馨提示!由于新浪微博认证机制调整,您的新浪微博帐号绑定已过期,请重新绑定!立即重新绑定新浪微博》  |  关闭

逆风飞翔的鸟

追逐风中散落的默契~

 
 
 

日志

 
 
关于我

曾经迷惑于一份距离 曾经感动于一个传说 …… 在仆仆风中 我伸手 抓住你我的缘分 …… “傻傻”的你 能闻到风中 你我的默契吗?!

网易考拉推荐

【动作】Peregon.2006.歼灭任务  

2012-08-10 19:05:44|  分类: 动作 |  标签: |举报 |字号 订阅

  下载LOFTER 我的照片书  |
【动作】Peregon.2006.歼灭任务 - 归鸿 - 逆风飞翔的鸟

【影片原名】Peregon
【中文译名】歼灭任务/中转站
【出品公司】Nashe Kino
【出品年代】2006 年
【上映日期】2006年6月7日  俄罗斯 
【官方网站】http://www.peregonfilm.ru/
【IMDB链接】http://us.imdb.com/title/tt0416111
【国  家】俄罗斯
【类  别】喜剧/犯罪/剧情/历史/战争
【对白语言】俄语
【字幕语言】中文
【影片长度】145 Mins
【导  演】亚历山大·罗高斯基 Aleksandr Rogozhkin
【主  演】阿列克谢·谢列布里亚科夫 Aleksei Serebryakov....Captain Yurchenko
       Anastasiya Nemolyayeva ....Irina Zareva
       Yuri Itskov ....Svist
       丹尼尔·斯特拉霍夫 Daniil Strakhov....Captain Lisnevsky
       Svetlana Stroganova ....Valentina
       Stepan Abramov ....Fitil'
       Marina Aleksandrova
      Gennady Alekseev ....Wilson
       Anna Marina Bensaud ....Lieut. Jackson
       Artem Bordovsky ....Pulya
       Sarah Bulley ....Lieutenant Dana Adams
       Christopher Delsman ....Donald Svichkovsky aka 'Doc'
       Andrei Fomin ....Chernykh
 
 
【内容简介】
 
    讲述了二战期间,美国飞行员们从阿拉斯加运送物资到西伯利亚的一个小镇,协助当地苏联红军共同战斗。美军运送物资的飞机由一群漂亮的女驾驶员驾驶,整个苏维埃空军基地的俄罗斯小伙子们都被她们吸引了。由于文化和语言的不同,引发了一系列事情。

    这部两个多小时的群戏之作,深刻实写战场后方一隅,成果媲美《风流军医俏护士》。大战时期,俄罗斯楚科奇半岛有个秘密空军机场,让美国军机中转到前线打德军。影片开始时,美国飞来一队空军全女班,令中转站的俄国少年兵魂不附体。醉军官、俊机师、美丽翻译、无味厨子、花王医生、打杂的爱斯基摩人等等随之交叉登场,连猪仔狗仔都有个性。讲人的隔阂、爱情的角力、战争的恐怖。没一滴血,却写尽战地男女故事。

 

  General #1
    ID : 1 (0x1)
    Complete name : 00000.m2ts
    Format : BDAV
    Format/Info : Blu-ray Video
    File size : 21.6 GiB
    Duration : 2h 25mn
    Overall bit rate mode : Variable
    Overall bit rate : 21.2 Mbps
    Maximum Overall bit rate : 35.5 Mbps
  Video #4113
    ID : 4113 (0x1011)
    Menu ID : 1 (0x1)
    Format : AVC
    Format/Info : Advanced Video Codec
    Format profile : High@L4.1
    Format settings, CABAC : Yes
    Format settings, ReFrames : 4 frames
    Format settings, GOP : M=3, N=24
    Codec ID : 27
    Duration : 2h 25mn
    Bit rate mode : Variable
    Bit rate : 19.2 Mbps
    Maximum bit rate : 22.0 Mbps
    Width : 1 920 pixels
    Height : 1 080 pixels
    Display aspect ratio : 16:9
    Frame rate : 23.976 fps
    Standard : NTSC
    Color space : YUV
    Chroma subsampling : 4:2:0
    Bit depth : 8 bits
    Scan type : Progressive
    Bits/(Pixel*Frame) : 0.386
    Stream size : 19.5 GiB (91%)
    Color primaries : BT.709-5, BT.1361, IEC 61966-2-4, SMPTE RP177
    Transfer characteristics : BT.709-5, BT.1361
    Matrix coefficients : BT.709-5, BT.1361, IEC 61966-2-4 709, SMPTE RP177
  Audio #4352
    ID : 4352 (0x1100)
    Menu ID : 1 (0x1)
    Format : DTS
    Format/Info : Digital Theater Systems
    Codec ID : 130
    Duration : 2h 25mn
    Bit rate mode : Constant
    Bit rate : 1 152 Kbps
    Channel(s) : 6 channels
    Channel positions : Front: L C R, Side: L R, LFE
    Sampling rate : 48.0 KHz
    Bit depth : 16 bits
    Compression mode : Lossy
    Stream size : 1.17 GiB (5%)
    Language : Russian
  Text #4608
    ID : 4608 (0x1200)
    Menu ID : 1 (0x1)
    Format : PGS
    Codec ID : 144
    Language : Chinese

  评论这张
 
阅读(124)| 评论(0)
推荐 转载

历史上的今天

在LOFTER的更多文章

评论

<#--最新日志,群博日志--> <#--推荐日志--> <#--引用记录--> <#--博主推荐--> <#--随机阅读--> <#--首页推荐--> <#--历史上的今天--> <#--被推荐日志--> <#--上一篇,下一篇--> <#-- 热度 --> <#-- 网易新闻广告 --> <#--右边模块结构--> <#--评论模块结构--> <#--引用模块结构--> <#--博主发起的投票-->
 
 
 
 
 
 
 
 
 
 
 
 
 
 

页脚

网易公司版权所有 ©1997-2017