注册 登录  
 加关注
   显示下一条  |  关闭
温馨提示!由于新浪微博认证机制调整,您的新浪微博帐号绑定已过期,请重新绑定!立即重新绑定新浪微博》  |  关闭

逆风飞翔的鸟

追逐风中散落的默契~

 
 
 

日志

 
 
关于我

曾经迷惑于一份距离 曾经感动于一个传说 …… 在仆仆风中 我伸手 抓住你我的缘分 …… “傻傻”的你 能闻到风中 你我的默契吗?!

网易考拉推荐

【动作】Above.the.Law.1988.法律之上  

2012-08-10 11:07:13|  分类: 动作 |  标签: |举报 |字号 订阅

  下载LOFTER 我的照片书  |
【动作】Above.the.Law.1988.法律之上 - 归鸿 - 逆风飞翔的鸟

片名:Above the Law
中文名:法律之上/热血高手/赤手威龙
英文别名:Nico (UK)(cable TV title) Nico: Above the Law (Australia)
地区:美国 香港
对白:英语 西班牙语
上映时间:1988年04月08日 美国
时长:99 min / Germany:93
类型:动作 犯罪 剧情 惊怵
导演:安德鲁·戴维斯(Andrew Davis)
主演:史蒂文·西格尔(Steven Seagal) | 帕姆·格里尔(Pam Grier) | 亨利·席尔瓦(Henry Silva) | Ron Dean | Daniel Faraldo | 莎朗·斯通(Sharon Stone)


剧情介绍
 
    芝加哥探员尼古,不幸被人诬告吃官司,为了查出真相,他决定逃走,在警方围捕和敌人追杀的恶劣环境下,独力查找真相,回复自己的自由和清白。

 

  General #1
    ID : 1 (0x1)
    Complete name : 00000.m2ts
    Format : BDAV
    Format/Info : Blu-ray Video
    File size : 18.6 GiB
    Duration : 1h 39mn
    Overall bit rate mode : Variable
    Overall bit rate : 26.9 Mbps
    Maximum Overall bit rate : 35.5 Mbps
  Video #4113
    ID : 4113 (0x1011)
    Menu ID : 1 (0x1)
    Format : VC-1
    Format profile : Advanced@L3
    Codec ID : 234
    Duration : 1h 39mn
    Bit rate : 24.5 Mbps
    Width : 1 920 pixels
    Height : 1 080 pixels
    Display aspect ratio : 16:9
    Frame rate : 23.976 fps
    Chroma subsampling : 4:2:0
    Bit depth : 8 bits
    Scan type : Progressive
    Compression mode : Lossy
    Bits/(Pixel*Frame) : 0.492
    Stream size : 17.0 GiB (91%)
  Audio #4352
    ID : 4352 (0x1100)
    Menu ID : 1 (0x1)
    Format : TrueHD
    Muxing mode : Stream extension
    Codec ID : 131
    Duration : 14s 718ms
    Bit rate mode : Variable
    Bit rate : 640 Kbps
    Maximum bit rate : 2 772 Kbps
    Channel(s) : 6 channels
    Channel positions : Front: L C R, Side: L R, LFE
    Sampling rate : 48.0 KHz
    Compression mode : Lossless
    Stream size : 1.12 MiB (0%)
    Language : English
  Audio #4353
    ID : 4353 (0x1101)
    Menu ID : 1 (0x1)
    Format : AC-3
    Format/Info : Audio Coding 3
    Codec ID : 129
    Duration : 1h 39mn
    Bit rate : 640 Kbps
    Channel(s) : 5 channels
    Sampling rate : 48.0 KHz
    Compression mode : Lossy
    Stream size : 454 MiB (2%)
    Language : English
  Text #4608
    ID : 4608 (0x1200)
    Menu ID : 1 (0x1)
    Format : PGS
    Codec ID : 144
    Language : Chinese
  Text #4609
    ID : 4609 (0x1201)
    Menu ID : 1 (0x1)
    Format : PGS
    Codec ID : 144
    Language : Japanese
  Text #4610
    ID : 4610 (0x1202)
    Menu ID : 1 (0x1)
    Format : PGS
    Codec ID : 144
    Language : English
  Text #4611
    ID : 4611 (0x1203)
    Menu ID : 1 (0x1)
    Format : PGS
    Codec ID : 144
    Language : Japanese
  Text #4612
    ID : 4612 (0x1204)
    Menu ID : 1 (0x1)
    Format : PGS
    Codec ID : 144
    Language : French
  Text #4613
    ID : 4613 (0x1205)
    Menu ID : 1 (0x1)
    Format : PGS
    Codec ID : 144
    Language : German
  Text #4614
    ID : 4614 (0x1206)
    Menu ID : 1 (0x1)
    Format : PGS
    Codec ID : 144
    Language : Italian
  Text #4615
    ID : 4615 (0x1207)
    Menu ID : 1 (0x1)
    Format : PGS
    Codec ID : 144
    Language : Italian
  Text #4616
    ID : 4616 (0x1208)
    Menu ID : 1 (0x1)
    Format : PGS
    Codec ID : 144
    Language : Spanish
  Text #4617
    ID : 4617 (0x1209)
    Menu ID : 1 (0x1)
    Format : PGS
    Codec ID : 144
    Language : Dutch
  Text #4618
    ID : 4618 (0x120A)
    Menu ID : 1 (0x1)
    Format : PGS
    Codec ID : 144
    Language : Spanish
  Text #4619
    ID : 4619 (0x120B)
    Menu ID : 1 (0x1)
    Format : PGS
    Codec ID : 144
    Language : Danish
  Text #4620
    ID : 4620 (0x120C)
    Menu ID : 1 (0x1)
    Format : PGS
    Codec ID : 144
    Language : Polish
  Text #4621
    ID : 4621 (0x120D)
    Menu ID : 1 (0x1)
    Format : PGS
    Codec ID : 144
    Language : Portuguese
  Text #4622
    ID : 4622 (0x120E)
    Menu ID : 1 (0x1)
    Format : PGS
    Codec ID : 144
    Language : Swedish

  评论这张
 
阅读(184)| 评论(0)
推荐 转载

历史上的今天

在LOFTER的更多文章

评论

<#--最新日志,群博日志--> <#--推荐日志--> <#--引用记录--> <#--博主推荐--> <#--随机阅读--> <#--首页推荐--> <#--历史上的今天--> <#--被推荐日志--> <#--上一篇,下一篇--> <#-- 热度 --> <#-- 网易新闻广告 --> <#--右边模块结构--> <#--评论模块结构--> <#--引用模块结构--> <#--博主发起的投票-->
 
 
 
 
 
 
 
 
 
 
 
 
 
 

页脚

网易公司版权所有 ©1997-2017