注册 登录  
 加关注
   显示下一条  |  关闭
温馨提示!由于新浪微博认证机制调整,您的新浪微博帐号绑定已过期,请重新绑定!立即重新绑定新浪微博》  |  关闭

逆风飞翔的鸟

追逐风中散落的默契~

 
 
 

日志

 
 
关于我

曾经迷惑于一份距离 曾经感动于一个传说 …… 在仆仆风中 我伸手 抓住你我的缘分 …… “傻傻”的你 能闻到风中 你我的默契吗?!

网易考拉推荐

【动作】See.No.Evil.2006.非礼勿视  

2012-08-10 11:34:02|  分类: 动作 |  标签: |举报 |字号 订阅

  下载LOFTER 我的照片书  |
【动作】See.No.Evil.2006.非礼勿视 - 归鸿 - 逆风飞翔的鸟

◎译  名 非礼勿视/魔眼无踪
◎片  名 See No Evil
◎年  代 2006
◎国  家 美国
◎类  别 惊悚/恐怖/悬疑
◎语  言 英语
◎字  幕 中文
◎IMDB链接  http://www.imdb.com/title/tt0437179
◎片  长 84 Min
◎导  演 盖瑞格瑞·达克 Gregory Dark
◎主  演 肯恩 Kane
       克里斯汀娜·维达 Christina Vidal
       萨曼莎·诺贝尔 Samantha Noble
       卢克·佩格勒 Luke Pegler
 

◎简  介 
 
剧情简介

    身高七英尺,体重四百磅,头骨里嵌着一个生锈的铁盘,锋利的指甲足够戳穿对手眼睛,这位早已被社会所遗弃的,名叫雅各布·古德奈特的精神病患者隐居在一个阴仄诡秘的客栈已经很长时间了。直到有一天,他无聊的生活被一群年轻的闯入者打破。这帮少男少女都是感化所的成员,为了逃避警察的追捕误入了这个噩梦般的地方。而他们要逃避的警察这是四年前将一颗子弹送入雅各布脑子里却没能乾掉他的家伙。很快杀人魔便下手绑架了他们中的一员,但这只是个诱饵,打算去营救同伴的其他犯法者们,面临的将是一场血腥的暴力争斗,到底谁能活到最后呢……
 
幕后花絮

    狮门公司今年是卯足了劲儿,要在恐怖片上继续掘金。光五月份就有两部恐怖片上映,一部打鬼魂牌,另一部,也就是本片,打算以传统风格杀出一条“血”路。《电锯惊魂》系列,以小成本狂收两亿美元的票房,给了狮门开门见“红”的信心和底气。继续着悬疑加血腥的组合,本片用的血浆恐怕快以吨来计量,更有堆积如山的人体残肢来挑战观众的忍耐极限。一个警察被活生生砍掉胳膊之类的惨状在片中司空见惯,定级为“R”看来早就在制片方的意料之中,甚至就是影片的一大卖点。毕竟现代人麻木的生活需要刺激,有人爱看鬼魂狂舞乱爬,有人爱看别人抛头颅洒热血。不管什么恐怖套路,走到极致总归没错……
 
制作阵容

    作为在摔角台上纵横数十年,获得过无数冠军头衔的“大型红色杀人机器”,肯恩的银幕处女作以聪明绝顶的杀人狂魔形象登场,显然比当年的蝎子王前辈岩石约翰逊更有噱头,也更容易迎合观众胃口。架不住斯瓦辛格转战政坛,史泰龙渐显老态,如今好莱坞肌肉男已呈现青黄不接的态势,只剩岩石一个人在苦苦支撑,显然也供不应求。摔角本身就需要演技基础,同时良好的身体外形也必不可少,身高2.13米的肯恩当然成为肌肉男的新生力军。别看本片选择与《达·芬奇密码》同一天上映,貌似鸡蛋碰石头的举动,这恰恰说明制片方对肯恩的强大“肉丝”军团有着足够的信心。如果此次肯恩凭借此片一举树立自己的强大形象,今后好莱坞必定将是“欲问肌肉男何处寻,众人遥指摔角台”了。

    值得一提的是,本片的导演盖瑞格瑞·达克是世界顶级的音乐录影带导演,所以对片子的声效要求极高。一部八百万美元的小制作,复杂的音效剪辑竟然花了三个月的时间,最终导演向大家呈现出了令人拍案叫绝的视听效果……

 

  General #1
    ID : 1 (0x1)
    Complete name : 00000.m2ts
    Format : BDAV
    Format/Info : Blu-ray Video
    File size : 19.3 GiB
    Duration : 1h 23mn
    Overall bit rate mode : Variable
    Overall bit rate : 33.0 Mbps
    Maximum Overall bit rate : 35.5 Mbps
  Video #4113
    ID : 4113 (0x1011)
    Menu ID : 1 (0x1)
    Format : AVC
    Format/Info : Advanced Video Codec
    Format profile : High@L4.1
    Format settings, CABAC : Yes
    Format settings, ReFrames : 4 frames
    Codec ID : 27
    Duration : 1h 23mn
    Bit rate mode : Variable
    Bit rate : 30.1 Mbps
    Maximum bit rate : 37.0 Mbps
    Width : 1 920 pixels
    Height : 1 080 pixels
    Display aspect ratio : 16:9
    Frame rate : 23.976 fps
    Color space : YUV
    Chroma subsampling : 4:2:0
    Bit depth : 8 bits
    Scan type : Progressive
    Bits/(Pixel*Frame) : 0.606
    Stream size : 17.7 GiB (91%)
    Color primaries : BT.709-5, BT.1361, IEC 61966-2-4, SMPTE RP177
    Transfer characteristics : BT.709-5, BT.1361
    Matrix coefficients : BT.709-5, BT.1361, IEC 61966-2-4 709, SMPTE RP177
  Audio #4352
    ID : 4352 (0x1100)
    Menu ID : 1 (0x1)
    Format : DTS
    Format/Info : Digital Theater Systems
    Muxing mode : Stream extension
    Codec ID : 134
    Duration : 1h 23mn
    Bit rate mode : Constant
    Bit rate : 1 510 Kbps
    Channel(s) : 6 channels
    Channel positions : Front: L C R, Side: L R, LFE
    Sampling rate : 48.0 KHz
    Bit depth : 24 bits
    Compression mode : Lossy
    Stream size : 901 MiB (5%)
    Language : English
  Text #4608
    ID : 4608 (0x1200)
    Menu ID : 1 (0x1)
    Format : PGS
    Codec ID : 144
    Language : Chinese
  Text #4609
    ID : 4609 (0x1201)
    Menu ID : 1 (0x1)
    Format : PGS
    Codec ID : 144
    Language : Chinese
  Text #4610
    ID : 4610 (0x1202)
    Menu ID : 1 (0x1)
    Format : PGS
    Codec ID : 144
    Language : English

  评论这张
 
阅读(114)| 评论(0)
推荐 转载

历史上的今天

在LOFTER的更多文章

评论

<#--最新日志,群博日志--> <#--推荐日志--> <#--引用记录--> <#--博主推荐--> <#--随机阅读--> <#--首页推荐--> <#--历史上的今天--> <#--被推荐日志--> <#--上一篇,下一篇--> <#-- 热度 --> <#-- 网易新闻广告 --> <#--右边模块结构--> <#--评论模块结构--> <#--引用模块结构--> <#--博主发起的投票-->
 
 
 
 
 
 
 
 
 
 
 
 
 
 

页脚

网易公司版权所有 ©1997-2017