注册 登录  
 加关注
   显示下一条  |  关闭
温馨提示!由于新浪微博认证机制调整,您的新浪微博帐号绑定已过期,请重新绑定!立即重新绑定新浪微博》  |  关闭

逆风飞翔的鸟

追逐风中散落的默契~

 
 
 

日志

 
 
关于我

曾经迷惑于一份距离 曾经感动于一个传说 …… 在仆仆风中 我伸手 抓住你我的缘分 …… “傻傻”的你 能闻到风中 你我的默契吗?!

网易考拉推荐

【动作】P2.2007.车库惊魂  

2012-07-29 13:34:46|  分类: 动作 |  标签: |举报 |字号 订阅

  下载LOFTER 我的照片书  |
【动作】P2.2007.车库惊魂 - 归鸿 - 逆风飞翔的鸟

◎译  名 车库惊魂/夺命停车场/P2
◎片  名 P2
◎年  代 2007
◎国  家 美国
◎类  别 惊悚/恐怖
◎语  言 英语
◎字  幕 中文
◎IMDB链接  http://www.imdb.com/title/tt0804516/
◎片  长 97 Min
◎导  演 弗兰克·卡方 Franck Khalfoun
◎主  演 瑞秋·尼科尔斯 Rachel Nichols .....Angela Bridges
       西蒙·雷诺兹 Simon Reynolds .....Bob Harper
       韦斯·本特利 Wes Bentley .....Thomas
       Grace Lynn Kung .....Elevator Gal
       Paul Sun-Hyung Lee .....Man in Elevator
 

剧情介绍
 
  故事发生在圣诞夜。这一天,对于大多数美国人来说都是要与家人围坐在火炉边,伴着圣诞树和各种礼物在欢声笑语中度过。平时忙着各种打拼的人们在这一天都会放下手中的工作,早早赶回去与家人团聚。但是工作狂安吉拉在这一天依旧在办公室里留到了很晚,她总是想要再多完成一笔订单,多做成一买卖。但是这一次她没有想到额外的加班会让自己陷入前所未有的恐怖绝境……

    在终于做完手头的工作之后,对于家庭晚宴安吉拉已经迟到很久了。她匆忙下到车库去取车,但祸不单行的是车居然在这个时候出了故障,无法发动。而在这个废弃的车库中安吉拉的手机也收不到任何信号。

    在此一筹莫展之际,一位看上去和蔼友善的保安走上前来主动提出帮助并邀请安吉拉去他的办公室,与他一起分享一个小型圣诞晚宴……

    本片在故事套路上并不脱俗,惊慌尖叫的美女被凶残恐怖的杀人魔头到处追赶得场面在许多同类型影片中都能看到。但本片的聪明在之处在于将这样一个俗套的故事路线放置在了新颖的环境中,从而使得影片得以呈现出非同一般的阴冷的恐怖效果。车库,是很多人每天都必须经过的场所。在那个空旷、阴冷、潮湿的空间中似乎总隐藏着某种致命的不安。无论是成排的汽车还是明晃晃的日光灯,或者是四周惨白的墙壁和天花板上交错的金属管道都散发着一种隐约的孤独感和孤独背后深邃的恐惧。也许,车库这种地方正是现代都市文明所引发的人们心理上孤独、无助情绪的集中象征。在影片中那个废弃的车库经过技术的光影处理,更是具有一种慑人心魄的紧张力量,通过它所营造的全片的恐怖气氛,是完美的。关于圣诞的恐怖电影里来佳作贫乏,1974年的《黑色圣诞》(Black Christmas)缔造了一个经典,而本片也许也会成为这个时代的圣诞恐怖经典。只是也许,一切都等影片全面上映后再见分晓吧。
 


  General #1
    ID : 1 (0x1)
    Complete name : 00000.m2ts
    Format : BDAV
    Format/Info : Blu-ray Video
    File size : 20.0 GiB
    Duration : 1h 37mn
    Overall bit rate : 29.3 Mbps
    Maximum Overall bit rate : 35.5 Mbps
  Video #4113
    ID : 4113 (0x1011)
    Menu ID : 1 (0x1)
    Format : VC-1
    Format profile : Advanced@L3
    Codec ID : 234
    Duration : 1h 37mn
    Bit rate : 26.6 Mbps
    Width : 1 920 pixels
    Height : 1 080 pixels
    Display aspect ratio : 16:9
    Frame rate : 23.976 fps
    Chroma subsampling : 4:2:0
    Bit depth : 8 bits
    Scan type : Progressive
    Compression mode : Lossy
    Bits/(Pixel*Frame) : 0.535
    Stream size : 18.1 GiB (91%)
  Audio #4352
    ID : 4352 (0x1100)
    Menu ID : 1 (0x1)
    Format : DTS
    Format/Info : Digital Theater Systems
    Muxing mode : Stream extension
    Codec ID : 134
    Duration : 1h 37mn
    Bit rate mode : Constant
    Bit rate : 1 510 Kbps
    Channel(s) : 6 channels
    Channel positions : Front: L C R, Side: L R, LFE
    Sampling rate : 48.0 KHz
    Bit depth : 16 bits
    Compression mode : Lossy
    Stream size : 1.02 GiB (5%)
    Language : English
  Text #4608
    ID : 4608 (0x1200)
    Menu ID : 1 (0x1)
    Format : PGS
    Codec ID : 144
    Language : Chinese
  Text #4609
    ID : 4609 (0x1201)
    Menu ID : 1 (0x1)
    Format : PGS
    Codec ID : 144
    Language : English

  评论这张
 
阅读(172)| 评论(0)
推荐 转载

历史上的今天

在LOFTER的更多文章

评论

<#--最新日志,群博日志--> <#--推荐日志--> <#--引用记录--> <#--博主推荐--> <#--随机阅读--> <#--首页推荐--> <#--历史上的今天--> <#--被推荐日志--> <#--上一篇,下一篇--> <#-- 热度 --> <#-- 网易新闻广告 --> <#--右边模块结构--> <#--评论模块结构--> <#--引用模块结构--> <#--博主发起的投票-->
 
 
 
 
 
 
 
 
 
 
 
 
 
 

页脚

网易公司版权所有 ©1997-2017