注册 登录  
 加关注
   显示下一条  |  关闭
温馨提示!由于新浪微博认证机制调整,您的新浪微博帐号绑定已过期,请重新绑定!立即重新绑定新浪微博》  |  关闭

逆风飞翔的鸟

追逐风中散落的默契~

 
 
 

日志

 
 
关于我

曾经迷惑于一份距离 曾经感动于一个传说 …… 在仆仆风中 我伸手 抓住你我的缘分 …… “傻傻”的你 能闻到风中 你我的默契吗?!

网易考拉推荐

【动作】The.Poseidon.Adventure.1972.海神号遇险记  

2012-07-29 11:08:27|  分类: 动作 |  标签: |举报 |字号 订阅

  下载LOFTER 我的照片书  |
【动作】The.Poseidon.Adventure.1972.海神号遇险记 - 归鸿 - 逆风飞翔的鸟

【原 片 名】The Poseidon Adventure
【中 文 名】海神号遇险记
【出品年代】1972
【IMDB链接】http://www.imdb.com/title/tt0069113
【国  家】美国
【类  别】剧情/惊秫/冒险/动作
【导  演】Irwin Allen 艾尔文?爱伦
       Ronald Neame 罗纳德?内米
【主  演】Ernest Borgnine 欧内斯特?博格宁
       Gene Hackman 吉恩?哈克曼
       Leslie Nielsen 莱斯利?尼尔森
       Red Buttons 瑞德?巴顿斯
       Carol Lynley卡罗尔?林利
       Stella Stevens 斯特拉?史蒂文斯
       Shelley Winters 谢利?温特斯
       Phil Adams 菲尔?亚当斯
       Roddy McDowall 罗迪?麦克道尔
 

【内容简介】

    七十年代初期轰动一时的大堆头灾难片。描写大邮轮海神号在新年前夕遭大风浪将船整个翻覆过来。其中,以牧师吉恩.哈克曼为首的一组人在同心协力下越过重重障碍爬到水面上,成为少数战胜灾难的生还者。在逃亡过程中,导演罗纳德.尼姆擅长于制造人性味,尤其在於于谢利.温特斯英勇潜水的一段最为感受人,牧师舍已为人的精神亦令人敬仰,堪称是同类作品中的高水准之作。

 

  General #1
    ID : 1 (0x1)
    Complete name : 00000.m2ts
    Format : BDAV
    Format/Info : Blu-ray Video
    File size : 30.3 GiB
    Duration : 1h 57mn
    Overall bit rate mode : Variable
    Overall bit rate : 37.1 Mbps
    Maximum Overall bit rate : 35.5 Mbps
  Video #4113
    ID : 4113 (0x1011)
    Menu ID : 1 (0x1)
    Format : AVC
    Format/Info : Advanced Video Codec
    Format profile : High@L4.1
    Format settings, CABAC : Yes
    Format settings, ReFrames : 4 frames
    Codec ID : 27
    Duration : 1h 57mn
    Bit rate mode : Variable
    Bit rate : 32.5 Mbps
    Maximum bit rate : 34.5 Mbps
    Width : 1 920 pixels
    Height : 1 080 pixels
    Display aspect ratio : 16:9
    Frame rate : 23.976 fps
    Color space : YUV
    Chroma subsampling : 4:2:0
    Bit depth : 8 bits
    Scan type : Progressive
    Bits/(Pixel*Frame) : 0.654
    Stream size : 26.6 GiB (88%)
  Audio #4352-253-113
    ID : 4352 (0x1100)-253 (0xFD)-113 (0x71)
    Menu ID : 1 (0x1)
    Format : DTS
    Format/Info : Digital Theater Systems
    Muxing mode : Stream extension
    Codec ID : 134
    Duration : 1h 56mn
    Bit rate mode : Constant
    Bit rate : 1 510 Kbps
    Channel(s) : 4 channels
    Channel positions : Front: L C R, Side: C
    Sampling rate : 48.0 KHz
    Bit depth : 24 bits
    Compression mode : Lossy
    Stream size : 1.23 GiB (4%)
    Language : English
  Audio #4352-197
    ID : 4352 (0x1100)-197 (0xC5)
    Menu ID : 1 (0x1)
    Format : DTS
    Format/Info : Digital Theater Systems
    Duration : 1h 57mn
    Bit rate mode : Constant
    Bit rate : 1 510 Kbps
    Channel(s) : 4 channels
    Channel positions : Front: L C R, Side: C
    Sampling rate : 48.0 KHz
    Bit depth : 24 bits
    Compression mode : Lossy
    Stream size : 1.23 GiB (4%)
  Text #4608
    ID : 4608 (0x1200)
    Menu ID : 1 (0x1)
    Format : PGS
    Codec ID : 144
    Language : Chinese
  Text #4609
    ID : 4609 (0x1201)
    Menu ID : 1 (0x1)
    Format : PGS
    Codec ID : 144
    Language : Chinese
  Text #4610
    ID : 4610 (0x1202)
    Menu ID : 1 (0x1)
    Format : PGS
    Codec ID : 144
    Language : Chinese
  Text #4611
    ID : 4611 (0x1203)
    Menu ID : 1 (0x1)
    Format : PGS
    Codec ID : 144
    Language : English
  Text #4612
    ID : 4612 (0x1204)
    Menu ID : 1 (0x1)
    Format : PGS
    Codec ID : 144
    Language : Spanish
  Text #4613
    ID : 4613 (0x1205)
    Menu ID : 1 (0x1)
    Format : PGS
    Codec ID : 144
    Language : French
  Text #4614
    ID : 4614 (0x1206)
    Menu ID : 1 (0x1)
    Format : PGS
    Codec ID : 144
    Language : Spanish
  Text #4615
    ID : 4615 (0x1207)
    Menu ID : 1 (0x1)
    Format : PGS
    Codec ID : 144
    Language : Danish
  Text #4616
    ID : 4616 (0x1208)
    Menu ID : 1 (0x1)
    Format : PGS
    Codec ID : 144
    Language : Dutch
  Text #4617
    ID : 4617 (0x1209)
    Menu ID : 1 (0x1)
    Format : PGS
    Codec ID : 144
    Language : Finnish
  Text #4618
    ID : 4618 (0x120A)
    Menu ID : 1 (0x1)
    Format : PGS
    Codec ID : 144
    Language : German
  Text #4619
    ID : 4619 (0x120B)
    Menu ID : 1 (0x1)
    Format : PGS
    Codec ID : 144
    Language : Italian
  Text #4620
    ID : 4620 (0x120C)
    Menu ID : 1 (0x1)
    Format : PGS
    Codec ID : 144
    Language : Norwegian
  Text #4621
    ID : 4621 (0x120D)
    Menu ID : 1 (0x1)
    Format : PGS
    Codec ID : 144
    Language : Portuguese
  Text #4622
    ID : 4622 (0x120E)
    Menu ID : 1 (0x1)
    Format : PGS
    Codec ID : 144
    Language : Russian
  Text #4623
    ID : 4623 (0x120F)
    Menu ID : 1 (0x1)
    Format : PGS
    Codec ID : 144
    Language : Swedish
  Text #4624
    ID : 4624 (0x1210)
    Menu ID : 1 (0x1)
    Format : PGS
    Codec ID : 144
    Language : Bulgarian
  Text #4625
    ID : 4625 (0x1211)
    Menu ID : 1 (0x1)
    Format : PGS
    Codec ID : 144
    Language : Greek
  Text #4626
    ID : 4626 (0x1212)
    Menu ID : 1 (0x1)
    Format : PGS
    Codec ID : 144
    Language : Hebrew
  Text #4627
    ID : 4627 (0x1213)
    Menu ID : 1 (0x1)
    Format : PGS
    Codec ID : 144
    Language : Icelandic
  Text #4628
    ID : 4628 (0x1214)
    Menu ID : 1 (0x1)
    Format : PGS
    Codec ID : 144
    Language : Indonesian
  Text #4629
    ID : 4629 (0x1215)
    Menu ID : 1 (0x1)
    Format : PGS
    Codec ID : 144
    Language : Korean
  Text #4630
    ID : 4630 (0x1216)
    Menu ID : 1 (0x1)
    Format : PGS
    Codec ID : 144
    Language : Polish
  Text #4631
    ID : 4631 (0x1217)
    Menu ID : 1 (0x1)
    Format : PGS
    Codec ID : 144
    Language : Portuguese
  Text #4632
    ID : 4632 (0x1218)
    Menu ID : 1 (0x1)
    Format : PGS
    Codec ID : 144
    Language : Tagalog
  Text #4633
    ID : 4633 (0x1219)
    Menu ID : 1 (0x1)
    Format : PGS
    Codec ID : 144
    Language : Thai
  Text #4634
    ID : 4634 (0x121A)
    Menu ID : 1 (0x1)
    Format : PGS
    Codec ID : 144
    Language : Japanese
  Text #4635
    ID : 4635 (0x121B)
    Menu ID : 1 (0x1)
    Format : PGS
    Codec ID : 144
    Language : Japanese

  评论这张
 
阅读(180)| 评论(0)
推荐 转载

历史上的今天

在LOFTER的更多文章

评论

<#--最新日志,群博日志--> <#--推荐日志--> <#--引用记录--> <#--博主推荐--> <#--随机阅读--> <#--首页推荐--> <#--历史上的今天--> <#--被推荐日志--> <#--上一篇,下一篇--> <#-- 热度 --> <#-- 网易新闻广告 --> <#--右边模块结构--> <#--评论模块结构--> <#--引用模块结构--> <#--博主发起的投票-->
 
 
 
 
 
 
 
 
 
 
 
 
 
 

页脚

网易公司版权所有 ©1997-2017