注册 登录  
 加关注
   显示下一条  |  关闭
温馨提示!由于新浪微博认证机制调整,您的新浪微博帐号绑定已过期,请重新绑定!立即重新绑定新浪微博》  |  关闭

逆风飞翔的鸟

追逐风中散落的默契~

 
 
 

日志

 
 
关于我

曾经迷惑于一份距离 曾经感动于一个传说 …… 在仆仆风中 我伸手 抓住你我的缘分 …… “傻傻”的你 能闻到风中 你我的默契吗?!

网易考拉推荐

【动作】Rest.Stop.1.2006.绝命休息站1  

2012-07-29 10:45:57|  分类: 动作 |  标签: |举报 |字号 订阅

  下载LOFTER 我的照片书  |
【动作】Rest.Stop.1.2006.绝命休息站1 - 归鸿 - 逆风飞翔的鸟

◎译  名 绝命休息站
◎片  名 Rest Stop
◎年  代 2006
◎国  家 美国
◎类  别 恐怖/惊悚
◎语  言 英语
◎IMDB链接  http://www.imdb.com/title/tt0787505/
◎片  长 85 mins
◎导  演 John Shiban
◎主  演 杰米·亚历山大 Jaimie Alexander ....Nicole Carrow
       Joey Mendicino ....Jess Hilts
       迪安娜·罗素 Deanna Russo ....Tracy Kress
       Diane Salinger ....The Mother (as Diane Louise Salinger)
       Michael Childers ....The Father
       Curtis Taylor ....The Ranger
       约瑟夫·劳伦斯 Joseph Lawrence ....Officer Michael Deacon
       Gary Entin ....Twin #1
       Edmund Entin ....Twin #2
       Jennifer Cormack ....College Student
       Mikey Post ....Scotty
       Nick Orefice ....The killer/kzl-303 (uncredited)
 

◎简  介
 
  故事发生在德克萨斯州,胸怀大志的女演员妮可打算和男朋友杰西一起前往好莱坞发展演艺事业。他们开车走了条捷径,希望能早一点到达,结果在一个公路休息站,杰西突然被一个疯狂的杀手绑架了。妮可发现杰西不见后,到处寻找,没想到自己也落入了魔掌中……

 

  General #1
    ID : 1 (0x1)
    Complete name : 00000.m2ts
    Format : BDAV
    Format/Info : Blu-ray Video
    File size : 16.3 GiB
    Duration : 1h 25mn
    Overall bit rate mode : Variable
    Overall bit rate : 27.3 Mbps
    Maximum Overall bit rate : 35.5 Mbps
  Video #4113
    ID : 4113 (0x1011)
    Menu ID : 1 (0x1)
    Format : VC-1
    Format profile : Advanced@L3
    Codec ID : 234
    Duration : 1h 25mn
    Bit rate : 24.9 Mbps
    Width : 1 920 pixels
    Height : 1 080 pixels
    Display aspect ratio : 16:9
    Frame rate : 23.976 fps
    Chroma subsampling : 4:2:0
    Bit depth : 8 bits
    Scan type : Progressive
    Compression mode : Lossy
    Bits/(Pixel*Frame) : 0.501
    Stream size : 14.8 GiB (91%)
  Audio #4352
    ID : 4352 (0x1100)
    Menu ID : 1 (0x1)
    Format : TrueHD
    Muxing mode : Stream extension
    Codec ID : 131
    Duration : 4s 269ms
    Bit rate mode : Variable
    Bit rate : 640 Kbps
    Maximum bit rate : 3 069 Kbps
    Channel(s) : 6 channels
    Channel positions : Front: L C R, Side: L R, LFE
    Sampling rate : 48.0 KHz
    Compression mode : Lossless
    Stream size : 334 KiB (0%)
    Language : English
  Audio #4353
    ID : 4353 (0x1101)
    Menu ID : 1 (0x1)
    Format : AC-3
    Format/Info : Audio Coding 3
    Codec ID : 129
    Duration : 96ms
    Bit rate : 640 Kbps
    Channel(s) : 5 channels
    Sampling rate : 48.0 KHz
    Compression mode : Lossy
    Stream size : 7.50 KiB (0%)
    Language : English
  Text #4608
    ID : 4608 (0x1200)
    Menu ID : 1 (0x1)
    Format : PGS
    Codec ID : 144
    Language : Chinese
  Text #4609
    ID : 4609 (0x1201)
    Menu ID : 1 (0x1)
    Format : PGS
    Codec ID : 144
    Language : English

  评论这张
 
阅读(126)| 评论(0)
推荐 转载

历史上的今天

在LOFTER的更多文章

评论

<#--最新日志,群博日志--> <#--推荐日志--> <#--引用记录--> <#--博主推荐--> <#--随机阅读--> <#--首页推荐--> <#--历史上的今天--> <#--被推荐日志--> <#--上一篇,下一篇--> <#-- 热度 --> <#-- 网易新闻广告 --> <#--右边模块结构--> <#--评论模块结构--> <#--引用模块结构--> <#--博主发起的投票-->
 
 
 
 
 
 
 
 
 
 
 
 
 
 

页脚

网易公司版权所有 ©1997-2017